Melodramat | Computer games | June 1, 2018

Dragon Blade - La battaglia degli Imperi (2015)


Dragon Blade - La battaglia degli Imperi / Tian jiang xiong shi (2015)
BDRip MD | MKV / [email protected] kb/s | 720x304 | 1h 43mn | 1.36 GB | Italian: MP3, 128 kb/s (2 ch)
Genre: Action | Adventure | Drama | History

Durante la dinastia Han, Huo An (Jackie Chan), comandante della squadra di protezione delle regioni occidentali, è caduto vittima delle forze del male ed è diventato schiavo. Il suo destino però si incontrerà presto con quello del generale romano Lucius (John Cusack), con cui proteggerà la sovranità della Cina dalle mire del folle Tiberius (Adrien Brody).

- 2 wins & 1 nomination.



General
Unique ID : 209863627911324988294155226741806475005 (0x9DE243B7CB227ACFB63920DDBF5C26FD)
Complete name : C:La.battaglia.degli.imperi.Dragon.Blade.2016.iTALiAN.MD.BDRip.mkv
Format : Matroska
Format version : Version 4 / Version 2
File size : 1.36 GiB
Duration : 1h 43mn
Overall bit rate : 1 883 Kbps
Encoded date : UTC 2016-07-01 08:44:56
Writing application : mkvmerge v8.3.0 ('Over the Horizon') 64bit
Writing library : libebml v1.3.1 + libmatroska v1.4.2

Video
ID : 1
Format : AVC
Format/Info : Advanced Video Codec
Format profile : [email protected]
Format settings, CABAC : No
Format settings, ReFrames : 1 frame
Codec ID : V_MPEG4/ISO/AVC
Duration : 1h 43mn
Bit rate : 1 753 Kbps
Width : 720 pixels
Height : 304 pixels
Display aspect ratio : 2.35:1
Frame rate mode : Constant
Frame rate : 23.976 fps
Color space : YUV
Chroma subsampling : 4:2:0
Bit depth : 8 bits
Scan type : Progressive
Bits/(Pixel*Frame) : 0.334
Stream size : 1.24 GiB (91%)
Writing library : x264 core 142 r2479 dd79a61
Encoding settings : cabac=0 / ref=1 / deblock=1:0:0 / analyse=0x1:0x111 / me=hex / subme=2 / psy=1 / psy_rd=1.00:0.00 / mixed_ref=0 / me_range=16 / chroma_me=1 / trellis=0 / 8x8dct=0 / cqm=0 / deadzone=21,11 / fast_pskip=1 / chroma_qp_offset=0 / threads=12 / lookahead_threads=2 / sliced_threads=0 / nr=0 / decimate=1 / interlaced=0 / bluray_compat=0 / constrained_intra=0 / bframes=0 / weightp=0 / keyint=240 / keyint_min=24 / scenecut=40 / intra_refresh=0 / rc_lookahead=10 / rc=2pass / mbtree=1 / bitrate=1753 / ratetol=1.0 / qcomp=0.60 / qpmin=0 / qpmax=69 / qpstep=4 / cplxblur=20.0 / qblur=0.5 / vbv_maxrate=14000 / vbv_bufsize=14000 / nal_hrd=none / filler=0 / ip_ratio=1.40 / aq=1:1.00
Default : Yes
Forced : No
Color range : Limited
Color primaries : BT.709
Transfer characteristics : BT.709
Matrix coefficients : BT.709
DURATION : 01:43:41.257000000
NUMBER_OF_FRAMES : 149161
NUMBER_OF_BYTES : 1363288136
_STATISTICS_WRITING_APP : mkvmerge v8.3.0 ('Over the Horizon') 64bit
_STATISTICS_WRITING_DATE_UT : 2016-07-01 08:44:56
_STATISTICS_TAGS : BPS DURATION NUMBER_OF_FRAMES NUMBER_OF_BYTES

Audio
ID : 2
Format : MPEG Audio
Format version : Version 1
Format profile : Layer 3
Mode : Joint stereo
Codec ID : A_MPEG/L3
Codec ID/Hint : MP3
Duration : 1h 43mn
Bit rate mode : Constant
Bit rate : 128 Kbps
Channel(s) : 2 channels
Sampling rate : 48.0 KHz
Compression mode : Lossy
Delay relative to video : -23ms
Stream size : 94.9 MiB (7%)
Title : Stereo
Writing library : LAME3.98ЄЄИ
Language : Italian
Default : Yes
Forced : No
DURATION : 01:43:41.256000000
NUMBER_OF_FRAMES : 259219
NUMBER_OF_BYTES : 99540096
_STATISTICS_WRITING_APP : mkvmerge v8.3.0 ('Over the Horizon') 64bit
_STATISTICS_WRITING_DATE_UT : 2016-07-01 08:44:56
_STATISTICS_TAGS : BPS DURATION NUMBER_OF_FRAMES NUMBER_OF_BYTES


Screenshots