BD D-Frag + OVA Subtitle Indonesia | Sheena, Queen of the Jungle | Dragon Ball 520

Вход в свой аккаунт

Или войдите через соц. сети

James Newton Howard - Falling Down: Original Motion Picture Soundtrack (1993) Intrada Special Collection Edition 2014


James Newton Howard - Falling Down: Original Motion Picture Soundtrack (1993) Intrada Special Collection Edition 2014
XLD | FLAC | Tracks (Cue&Log) ~ 321 Mb (incl 5%) | Mp3 (CBR320) ~ 180 Mb (incl 5%) | Scans included
Genre: Soundtrack, Score | Label: Intrada | # Special Collection Volume ISC 265 | Time: 01:10:17

“ At long last! World premiere release of oft-requested James Newton Howard score to Joel Schumacher's Falling Down. Dark, violent urban thriller stars Michael Douglas as tragic protagonist on rampage, heading inexorably towards final showdown with retiring cop Robert DuVall. As confrontations grow in intensity, Douglas becomes increasingly unhinged. Howard follows in tow, with initially sparse score growing increasingly dense, clustered as film progresses. Dark ideas, intense action all have their say. Highlights are many, including riveting chase cues, pulsating conflict music, but one standout motif deserves spotlight: Howard writes moving minor-key trumpet solo that plays just once during "not economically viable" scene ("Miracle Mile"), then disappears completely until conclusion ("Falling Down"), where composer now brings film and score together in brilliant, powerful fashion. Sensational writing! Also worthy of attention: haunting series of string chords shifting between minor, major, playing for estranged relationship between everyman Douglas and wife Barbara Hershey. Howard even quotes nursery rhyme "London Bridge", which subtly relates to cop Duvall's own wife Tuesday Weld, who needs the tune to help calm her troubled nerves. It is difficult to overstate dramatic complexities and thematic subtleties of this important music. Howard's score is followed by several alternates. Entire CD presented in stunning stereo audio from digital session masters vaulted in pristine condition at Warner Bros. Marty Paich conducts. Intrada Special Collection release available while quantities and interest remain! ”


“ In 1993, James Newton Howard was a fairly busy man; he completed 2 soundtracks for films that became minor hits. The 2nd of these was Harrison Ford's masterpiece 'The Fugitive'; the first was Joel Schumacher's 'Falling Down' - a gritty, hard-hitting film about a divorced - and unemployed - defense engineer who exacts angry revenge against various injustices he encounters, even as he tries to make his way back to his little girl's birthday party in Venice, California. In his mission, D-FENS (Michael Douglas) got help in his mission from Howard's score as he defended himself against arrogant street gang members and a neo-Nazi surplus store owner, faced down obnoxious golfers on a course, and evaded Detectives Pendergast (Robert Duvall) and Torres (Rachel Ticotin) who were on the hunt for him.

Few scores can blend an orchestral soundtrack with such elements as synthesizer or electric guitar, but James Newton Howard has done an exceptional job with this. Tracks such as 'Hole in Shoe' - where D-FENS first encounters the gang members - and 'Drive-by Shooting', where the gang members try to exact revenge on D-FENS, but crash their car and D-FENS takes their bag full of assault weapons - use a sinister, pounding effect as D-FENS attacks the gang members or walks away from the car crash. Electric guitar is also prevalent throughout but is effective as it lends a great effect to the shots & camera angles, especially the overhead shots at the Venice pier in 'Falling Down'; a wild flourish of strings is also heard in this track as Det. Pendergast races to the pier to arrest D-FENS. A melancholy trumpet theme is heard a couple of times in the score as well; it's mostly heard in 'Falling Down' and 1 other track - this is the theme heard as the 'not economically viable' man is arrested by L.A.P.D. officers for protesting outside the bank.

The liner notes, as another reviewer correctly points out, have extensive details about Howard's composition of the score and details of the filming, as well as production stills and interviews with the writers and soundtrack producers.

This score is masterfully written & well presented; Howard has created a great accompaniment to the misadventures of D-FENS - the story of a man at war with the everyday world.

Review by langleybcguy, Amazon.com
”








Tracklist:

01. Main Title (04:29)
02. First Phone Call (00:49)
03. Second Phone Call (00:33)
04. Hole In Shoe (04:11)
05. Drive-By Shooting (04:26)
06. Bus Stop (01:26)
07. MacArthur Park (02:49)
08. Miracle Mile (02:42)
09. To Surplus Store (01:08)
10. Police Car Sting (00:30)
11. Fitting Room (02:45)
12. Back Room (04:49)
13. Other Side Of The Moon (04:11)
14. Under Construction (02:10)
15. Golf Course (01:20)
16. Mother's House (01:11)
17. Caretaker's Family (07:11)
18. Til Death Do Us Part (05:45)
19. Beth Kicks Gun (00:42)
20. Falling Down (Revised) (03:40)
21. Still A Cop (Revised Alternate) (00:58)
22. End Titles (03:59)
23. I'm The Bad Guy? (02:43)
24. Falling Down (Revised Alternate) (01:01)
25. Still A Cop (Revised) (00:58)
26. Wild Pulse Guitar 1 (01:13)
27. Wild Pulse Guitar 2 (01:14)
28. Wild Pulse Guitar 3 (01:15)


X Lossless Decoder version 20131102 (145.0)

XLD extraction logfile from 2014-02-01 22:20:54 -0600

James Newton Howard / Falling Down (Intrada 2014)

Used drive : HL-DT-ST DVDRW GA32N (revision KE06)
Media type : Pressed CD

Ripper mode : CDParanoia III 10.2
Disable audio cache : OK for the drive with a cache less than 2750KiB
Make use of C2 pointers : NO
Read offset correction : 103
Max retry count : 100
Gap status : Analyzed, Appended

TOC of the extracted CD
Track | Start | Length | Start sector | End sector
---------------------------------------------------------
1 | 00:00:00 | 04:29:39 | 0 | 20213
2 | 04:29:39 | 00:49:31 | 20214 | 23919
3 | 05:18:70 | 00:33:04 | 23920 | 26398
4 | 05:51:74 | 04:11:42 | 26399 | 45265
5 | 10:03:41 | 04:26:61 | 45266 | 65276
6 | 14:30:27 | 01:26:41 | 65277 | 71767
7 | 15:56:68 | 02:49:02 | 71768 | 84444
8 | 18:45:70 | 02:42:41 | 84445 | 96635
9 | 21:28:36 | 01:08:31 | 96636 | 101766
10 | 22:36:67 | 00:30:01 | 101767 | 104017
11 | 23:06:68 | 02:45:31 | 104018 | 116423
12 | 25:52:24 | 04:49:00 | 116424 | 138098
13 | 30:41:24 | 04:10:71 | 138099 | 156919
14 | 34:52:20 | 02:10:10 | 156920 | 166679
15 | 37:02:30 | 01:20:39 | 166680 | 172718
16 | 38:22:69 | 01:11:32 | 172719 | 178075
17 | 39:34:26 | 07:10:73 | 178076 | 210398
18 | 46:45:24 | 05:44:72 | 210399 | 236270
19 | 52:30:21 | 00:42:28 | 236271 | 239448
20 | 53:12:49 | 03:40:06 | 239449 | 255954
21 | 56:52:55 | 00:58:37 | 255955 | 260341
22 | 57:51:17 | 03:59:00 | 260342 | 278266
23 | 61:50:17 | 02:43:35 | 278267 | 290526
24 | 64:33:52 | 01:01:40 | 290527 | 295141
25 | 65:35:17 | 00:58:00 | 295142 | 299491
26 | 66:33:17 | 01:13:34 | 299492 | 305000
27 | 67:46:51 | 01:14:41 | 305001 | 310591
28 | 69:01:17 | 01:15:46 | 310592 | 316262

AccurateRip Summary
Disc not found in AccurateRip DB.

All Tracks
Statistics
Read error : 0
Skipped (treated as error) : 0
Edge jitter error (maybe fixed) : 0
Atom jitter error (maybe fixed) : 0
Drift error (maybe fixed) : 0
Dropped bytes error (maybe fixed) : 0
Duplicated bytes error (maybe fixed) : 0

Track 01
Filename : /Users/kgpat/Desktop/Convert/FallingDownFLAC/01 James Newton Howard - Main Title.flac
Pre-gap length : 00:02:00

CRC32 hash : F23A2B1D
CRC32 hash (skip zero) : 25ED6C29
AccurateRip v1 signature : 2556A46A
AccurateRip v2 signature : D03175E8
->Track not present in AccurateRip database.
Statistics
Read error : 0
Skipped (treated as error) : 0
Edge jitter error (maybe fixed) : 0
Atom jitter error (maybe fixed) : 0
Drift error (maybe fixed) : 0
Dropped bytes error (maybe fixed) : 0
Duplicated bytes error (maybe fixed) : 0

Track 02
Filename : /Users/kgpat/Desktop/Convert/FallingDownFLAC/02 James Newton Howard - First Phone Call.flac

CRC32 hash : 0C460DC7
CRC32 hash (skip zero) : F94730D7
AccurateRip v1 signature : 2EBDE232
AccurateRip v2 signature : 2D3B68E5
->Track not present in AccurateRip database.
Statistics
Read error : 0
Skipped (treated as error) : 0
Edge jitter error (maybe fixed) : 0
Atom jitter error (maybe fixed) : 0
Drift error (maybe fixed) : 0
Dropped bytes error (maybe fixed) : 0
Duplicated bytes error (maybe fixed) : 0

Track 03
Filename : /Users/kgpat/Desktop/Convert/FallingDownFLAC/03 James Newton Howard - Second Phone Call.flac

CRC32 hash : 134C6968
CRC32 hash (skip zero) : D869A731
AccurateRip v1 signature : A3D4B22D
AccurateRip v2 signature : CD202AAE
->Track not present in AccurateRip database.
Statistics
Read error : 0
Skipped (treated as error) : 0
Edge jitter error (maybe fixed) : 0
Atom jitter error (maybe fixed) : 0
Drift error (maybe fixed) : 0
Dropped bytes error (maybe fixed) : 0
Duplicated bytes error (maybe fixed) : 0

Track 04
Filename : /Users/kgpat/Desktop/Convert/FallingDownFLAC/04 James Newton Howard - Hole In Shoe.flac

CRC32 hash : E7A4DFD4
CRC32 hash (skip zero) : 13925AFE
AccurateRip v1 signature : ACE876C2
AccurateRip v2 signature : 1C11AE93
->Track not present in AccurateRip database.
Statistics
Read error : 0
Skipped (treated as error) : 0
Edge jitter error (maybe fixed) : 0
Atom jitter error (maybe fixed) : 0
Drift error (maybe fixed) : 0
Dropped bytes error (maybe fixed) : 0
Duplicated bytes error (maybe fixed) : 0

Track 05
Filename : /Users/kgpat/Desktop/Convert/FallingDownFLAC/05 James Newton Howard - Drive-By Shooting.flac

CRC32 hash : C3110621
CRC32 hash (skip zero) : B7F5C5B5
AccurateRip v1 signature : D6039E04
AccurateRip v2 signature : 7A566D9E
->Track not present in AccurateRip database.
Statistics
Read error : 0
Skipped (treated as error) : 0
Edge jitter error (maybe fixed) : 0
Atom jitter error (maybe fixed) : 0
Drift error (maybe fixed) : 0
Dropped bytes error (maybe fixed) : 0
Duplicated bytes error (maybe fixed) : 0

Track 06
Filename : /Users/kgpat/Desktop/Convert/FallingDownFLAC/06 James Newton Howard - Bus Stop.flac

CRC32 hash : 97AA83C1
CRC32 hash (skip zero) : 08E6CF51
AccurateRip v1 signature : 3CCBAF24
AccurateRip v2 signature : 131F1CC0
->Track not present in AccurateRip database.
Statistics
Read error : 0
Skipped (treated as error) : 0
Edge jitter error (maybe fixed) : 0
Atom jitter error (maybe fixed) : 0
Drift error (maybe fixed) : 0
Dropped bytes error (maybe fixed) : 0
Duplicated bytes error (maybe fixed) : 0

Track 07
Filename : /Users/kgpat/Desktop/Convert/FallingDownFLAC/07 James Newton Howard - MacArthur Park.flac

CRC32 hash : FBE816B2
CRC32 hash (skip zero) : CE655169
AccurateRip v1 signature : 1F8BFA89
AccurateRip v2 signature : 8386D467
->Track not present in AccurateRip database.
Statistics
Read error : 0
Skipped (treated as error) : 0
Edge jitter error (maybe fixed) : 0
Atom jitter error (maybe fixed) : 0
Drift error (maybe fixed) : 0
Dropped bytes error (maybe fixed) : 0
Duplicated bytes error (maybe fixed) : 0

Track 08
Filename : /Users/kgpat/Desktop/Convert/FallingDownFLAC/08 James Newton Howard - Miracle Mile.flac

CRC32 hash : 1FA3DF7C
CRC32 hash (skip zero) : 1E594920
AccurateRip v1 signature : 21AD8BC4
AccurateRip v2 signature : 8AD2397F
->Track not present in AccurateRip database.
Statistics
Read error : 0
Skipped (treated as error) : 0
Edge jitter error (maybe fixed) : 0
Atom jitter error (maybe fixed) : 0
Drift error (maybe fixed) : 0
Dropped bytes error (maybe fixed) : 0
Duplicated bytes error (maybe fixed) : 0

Track 09
Filename : /Users/kgpat/Desktop/Convert/FallingDownFLAC/09 James Newton Howard - To Surplus Store.flac

CRC32 hash : D9BB147D
CRC32 hash (skip zero) : F28F8DBC
AccurateRip v1 signature : F6DBF483
AccurateRip v2 signature : 96422241
->Track not present in AccurateRip database.
Statistics
Read error : 0
Skipped (treated as error) : 0
Edge jitter error (maybe fixed) : 0
Atom jitter error (maybe fixed) : 0
Drift error (maybe fixed) : 0
Dropped bytes error (maybe fixed) : 0
Duplicated bytes error (maybe fixed) : 0

Track 10
Filename : /Users/kgpat/Desktop/Convert/FallingDownFLAC/10 James Newton Howard - Police Car Sting.flac

CRC32 hash : 1DF07997
CRC32 hash (skip zero) : 49BE0168
AccurateRip v1 signature : 2DEDF2E3
AccurateRip v2 signature : 241F83CA
->Track not present in AccurateRip database.
Statistics
Read error : 0
Skipped (treated as error) : 0
Edge jitter error (maybe fixed) : 0
Atom jitter error (maybe fixed) : 0
Drift error (maybe fixed) : 0
Dropped bytes error (maybe fixed) : 0
Duplicated bytes error (maybe fixed) : 0

Track 11
Filename : /Users/kgpat/Desktop/Convert/FallingDownFLAC/11 James Newton Howard - Fitting Room.flac

CRC32 hash : 1CF641B8
CRC32 hash (skip zero) : 31CBDA2A
AccurateRip v1 signature : 2DA92519
AccurateRip v2 signature : 390D344F
->Track not present in AccurateRip database.
Statistics
Read error : 0
Skipped (treated as error) : 0
Edge jitter error (maybe fixed) : 0
Atom jitter error (maybe fixed) : 0
Drift error (maybe fixed) : 0
Dropped bytes error (maybe fixed) : 0
Duplicated bytes error (maybe fixed) : 0

Track 12
Filename : /Users/kgpat/Desktop/Convert/FallingDownFLAC/12 James Newton Howard - Back Room.flac

CRC32 hash : 48831C7E
CRC32 hash (skip zero) : 5EF41D5F
AccurateRip v1 signature : 2761866B
AccurateRip v2 signature : 3E47AC1D
->Track not present in AccurateRip database.
Statistics
Read error : 0
Skipped (treated as error) : 0
Edge jitter error (maybe fixed) : 0
Atom jitter error (maybe fixed) : 0
Drift error (maybe fixed) : 0
Dropped bytes error (maybe fixed) : 0
Duplicated bytes error (maybe fixed) : 0

Track 13
Filename : /Users/kgpat/Desktop/Convert/FallingDownFLAC/13 James Newton Howard - Other Side Of The Moon.flac

CRC32 hash : 2D28454D
CRC32 hash (skip zero) : A3DC6E61
AccurateRip v1 signature : 218A00CD
AccurateRip v2 signature : 3390E1A3
->Track not present in AccurateRip database.
Statistics
Read error : 0
Skipped (treated as error) : 0
Edge jitter error (maybe fixed) : 0
Atom jitter error (maybe fixed) : 0
Drift error (maybe fixed) : 0
Dropped bytes error (maybe fixed) : 0
Duplicated bytes error (maybe fixed) : 0

Track 14
Filename : /Users/kgpat/Desktop/Convert/FallingDownFLAC/14 James Newton Howard - Under Construction.flac

CRC32 hash : 562C1087
CRC32 hash (skip zero) : DE85D330
AccurateRip v1 signature : ED3585DA
AccurateRip v2 signature : 630B69B3
->Track not present in AccurateRip database.
Statistics
Read error : 0
Skipped (treated as error) : 0
Edge jitter error (maybe fixed) : 0
Atom jitter error (maybe fixed) : 0
Drift error (maybe fixed) : 0
Dropped bytes error (maybe fixed) : 0
Duplicated bytes error (maybe fixed) : 0

Track 15
Filename : /Users/kgpat/Desktop/Convert/FallingDownFLAC/15 James Newton Howard - Golf Course.flac

CRC32 hash : C2E7D80C
CRC32 hash (skip zero) : 006D01E3
AccurateRip v1 signature : F63D7F77
AccurateRip v2 signature : 5DE06AA6
->Track not present in AccurateRip database.
Statistics
Read error : 0
Skipped (treated as error) : 0
Edge jitter error (maybe fixed) : 0
Atom jitter error (maybe fixed) : 0
Drift error (maybe fixed) : 0
Dropped bytes error (maybe fixed) : 0
Duplicated bytes error (maybe fixed) : 0

Track 16
Filename : /Users/kgpat/Desktop/Convert/FallingDownFLAC/16 James Newton Howard - Mother's House.flac

CRC32 hash : 53441870
CRC32 hash (skip zero) : 86973AF2
AccurateRip v1 signature : 4661F8FF
AccurateRip v2 signature : F4CF3085
->Track not present in AccurateRip database.
Statistics
Read error : 0
Skipped (treated as error) : 0
Edge jitter error (maybe fixed) : 0
Atom jitter error (maybe fixed) : 0
Drift error (maybe fixed) : 0
Dropped bytes error (maybe fixed) : 0
Duplicated bytes error (maybe fixed) : 0

Track 17
Filename : /Users/kgpat/Desktop/Convert/FallingDownFLAC/17 James Newton Howard - Caretaker's Family.flac

CRC32 hash : 8CB0204C
CRC32 hash (skip zero) : 2F5D859C
AccurateRip v1 signature : 04C06FAF
AccurateRip v2 signature : 4603F35D
->Track not present in AccurateRip database.
Statistics
Read error : 0
Skipped (treated as error) : 0
Edge jitter error (maybe fixed) : 0
Atom jitter error (maybe fixed) : 0
Drift error (maybe fixed) : 0
Dropped bytes error (maybe fixed) : 0
Duplicated bytes error (maybe fixed) : 0

Track 18
Filename : /Users/kgpat/Desktop/Convert/FallingDownFLAC/18 James Newton Howard - Til Death Do Us Part.flac

CRC32 hash : 8F1507A9
CRC32 hash (skip zero) : 502A3EAF
AccurateRip v1 signature : 54069FE4
AccurateRip v2 signature : ABB137E8
->Track not present in AccurateRip database.
Statistics
Read error : 0
Skipped (treated as error) : 0
Edge jitter error (maybe fixed) : 0
Atom jitter error (maybe fixed) : 0
Drift error (maybe fixed) : 0
Dropped bytes error (maybe fixed) : 0
Duplicated bytes error (maybe fixed) : 0

Track 19
Filename : /Users/kgpat/Desktop/Convert/FallingDownFLAC/19 James Newton Howard - Beth Kicks Gun.flac

CRC32 hash : 96F4C172
CRC32 hash (skip zero) : E463E88A
AccurateRip v1 signature : A2A6BF6A
AccurateRip v2 signature : 6BE720C8
->Track not present in AccurateRip database.
Statistics
Read error : 0
Skipped (treated as error) : 0
Edge jitter error (maybe fixed) : 0
Atom jitter error (maybe fixed) : 0
Drift error (maybe fixed) : 0
Dropped bytes error (maybe fixed) : 0
Duplicated bytes error (maybe fixed) : 0

Track 20
Filename : /Users/kgpat/Desktop/Convert/FallingDownFLAC/20 James Newton Howard - Falling Down (Revised).flac

CRC32 hash : D9CF4362
CRC32 hash (skip zero) : 7D647399
AccurateRip v1 signature : 1909F46D
AccurateRip v2 signature : 4816B1E5
->Track not present in AccurateRip database.
Statistics
Read error : 0
Skipped (treated as error) : 0
Edge jitter error (maybe fixed) : 0
Atom jitter error (maybe fixed) : 0
Drift error (maybe fixed) : 0
Dropped bytes error (maybe fixed) : 0
Duplicated bytes error (maybe fixed) : 0

Track 21
Filename : /Users/kgpat/Desktop/Convert/FallingDownFLAC/21 James Newton Howard - Still A Cop (Revised Alternate).flac

CRC32 hash : 5FDB37F2
CRC32 hash (skip zero) : F0C3165D
AccurateRip v1 signature : CEACAFF1
AccurateRip v2 signature : C3CE3B58
->Track not present in AccurateRip database.
Statistics
Read error : 0
Skipped (treated as error) : 0
Edge jitter error (maybe fixed) : 0
Atom jitter error (maybe fixed) : 0
Drift error (maybe fixed) : 0
Dropped bytes error (maybe fixed) : 0
Duplicated bytes error (maybe fixed) : 0

Track 22
Filename : /Users/kgpat/Desktop/Convert/FallingDownFLAC/22 James Newton Howard - End Titles.flac

CRC32 hash : C33007EC
CRC32 hash (skip zero) : CF472BDB
AccurateRip v1 signature : 61C5AB19
AccurateRip v2 signature : 73A8FB90
->Track not present in AccurateRip database.
Statistics
Read error : 0
Skipped (treated as error) : 0
Edge jitter error (maybe fixed) : 0
Atom jitter error (maybe fixed) : 0
Drift error (maybe fixed) : 0
Dropped bytes error (maybe fixed) : 0
Duplicated bytes error (maybe fixed) : 0

Track 23
Filename : /Users/kgpat/Desktop/Convert/FallingDownFLAC/23 James Newton Howard - I'm The Bad Guy?.flac

CRC32 hash : E2DF2D27
CRC32 hash (skip zero) : BB1F6EF4
AccurateRip v1 signature : 2ED1EF08
AccurateRip v2 signature : ACFF65FA
->Track not present in AccurateRip database.
Statistics
Read error : 0
Skipped (treated as error) : 0
Edge jitter error (maybe fixed) : 0
Atom jitter error (maybe fixed) : 0
Drift error (maybe fixed) : 0
Dropped bytes error (maybe fixed) : 0
Duplicated bytes error (maybe fixed) : 0

Track 24
Filename : /Users/kgpat/Desktop/Convert/FallingDownFLAC/24 James Newton Howard - Falling Down (Revised Alternate).flac

CRC32 hash : 65EA57B0
CRC32 hash (skip zero) : CDDB63D2
AccurateRip v1 signature : 66F4B5DD
AccurateRip v2 signature : 4FB4F900
->Track not present in AccurateRip database.
Statistics
Read error : 0
Skipped (treated as error) : 0
Edge jitter error (maybe fixed) : 0
Atom jitter error (maybe fixed) : 0
Drift error (maybe fixed) : 0
Dropped bytes error (maybe fixed) : 0
Duplicated bytes error (maybe fixed) : 0

Track 25
Filename : /Users/kgpat/Desktop/Convert/FallingDownFLAC/25 James Newton Howard - Still A Cop (Revised).flac

CRC32 hash : 3358EE01
CRC32 hash (skip zero) : C3ED3C42
AccurateRip v1 signature : 5486AFA1
AccurateRip v2 signature : 7F901BB1
->Track not present in AccurateRip database.
Statistics
Read error : 0
Skipped (treated as error) : 0
Edge jitter error (maybe fixed) : 0
Atom jitter error (maybe fixed) : 0
Drift error (maybe fixed) : 0
Dropped bytes error (maybe fixed) : 0
Duplicated bytes error (maybe fixed) : 0

Track 26
Filename : /Users/kgpat/Desktop/Convert/FallingDownFLAC/26 James Newton Howard - Wild Pulse Guitar 1.flac

CRC32 hash : 11745D6C
CRC32 hash (skip zero) : 784F8C36
AccurateRip v1 signature : 4797C2AD
AccurateRip v2 signature : AE85AD02
->Track not present in AccurateRip database.
Statistics
Read error : 0
Skipped (treated as error) : 0
Edge jitter error (maybe fixed) : 0
Atom jitter error (maybe fixed) : 0
Drift error (maybe fixed) : 0
Dropped bytes error (maybe fixed) : 0
Duplicated bytes error (maybe fixed) : 0

Track 27
Filename : /Users/kgpat/Desktop/Convert/FallingDownFLAC/27 James Newton Howard - Wild Pulse Guitar 2.flac

CRC32 hash : 2C8A268C
CRC32 hash (skip zero) : FE051B27
AccurateRip v1 signature : 5B2F6B5D
AccurateRip v2 signature : 13E8A36D
->Track not present in AccurateRip database.
Statistics
Read error : 0
Skipped (treated as error) : 0
Edge jitter error (maybe fixed) : 0
Atom jitter error (maybe fixed) : 0
Drift error (maybe fixed) : 0
Dropped bytes error (maybe fixed) : 0
Duplicated bytes error (maybe fixed) : 0

Track 28
Filename : /Users/kgpat/Desktop/Convert/FallingDownFLAC/28 James Newton Howard - Wild Pulse Guitar 3.flac

CRC32 hash : 02D2492F
CRC32 hash (skip zero) : E12BAA14
AccurateRip v1 signature : 6515C9FE
AccurateRip v2 signature : 34D8A6E0
->Track not present in AccurateRip database.
Statistics
Read error : 0
Skipped (treated as error) : 0
Edge jitter error (maybe fixed) : 0
Atom jitter error (maybe fixed) : 0
Drift error (maybe fixed) : 0
Dropped bytes error (maybe fixed) : 0
Duplicated bytes error (maybe fixed) : 0

No errors occurred

End of status report

foobar2000 1.2 / Dynamic Range Meter 1.1.1
log date: 2014-12-16 23:48:45

--------------------------------------------------------------------------------
Analyzed: James Newton Howard / Falling Down (Intrada 2014)
--------------------------------------------------------------------------------

DR Peak RMS Duration Track
--------------------------------------------------------------------------------
DR12 -0.04 dB -22.28 dB 4:30 01-Main Title
DR7 -12.67 dB -27.91 dB 0:49 02-First Phone Call
DR10 -3.43 dB -22.68 dB 0:33 03-Second Phone Call
DR12 -1.59 dB -20.92 dB 4:12 04-Hole In Shoe
DR13 -0.65 dB -18.38 dB 4:27 05-Drive-By Shooting
DR10 -3.70 dB -19.45 dB 1:27 06-Bus Stop
DR12 -3.21 dB -20.32 dB 2:49 07-MacArthur Park
DR12 -0.10 dB -19.98 dB 2:43 08-Miracle Mile
DR9 -5.49 dB -20.38 dB 1:08 09-To Surplus Store
DR8 -11.20 dB -24.92 dB 0:30 10-Police Car Sting
DR10 -7.95 dB -24.80 dB 2:45 11-Fitting Room
DR16 -0.01 dB -23.06 dB 4:49 12-Back Room
DR12 -4.34 dB -22.21 dB 4:11 13-Other Side Of The Moon
DR13 -0.79 dB -20.59 dB 2:10 14-Under Construction
DR11 -3.95 dB -22.11 dB 1:21 15-Golf Course
DR10 -8.31 dB -26.94 dB 1:11 16-Mother's House
DR16 -0.15 dB -23.40 dB 7:11 17-Caretaker's Family
DR15 -0.13 dB -20.49 dB 5:45 18-Til Death Do Us Part
DR11 -1.84 dB -18.33 dB 0:42 19-Beth Kicks Gun
DR17 -0.02 dB -23.24 dB 3:40 20-Falling Down (Revised)
DR9 -9.26 dB -25.83 dB 0:58 21-Still A Cop (Revised Alternate)
DR14 -0.02 dB -21.57 dB 3:59 22-End Titles
DR13 -0.06 dB -22.43 dB 2:43 23-I'm The Bad Guy?
DR9 -10.41 dB -26.19 dB 1:02 24-Falling Down (Revised Alternate)
DR10 -7.47 dB -23.80 dB 0:58 25-Still A Cop (Revised)
DR11 -11.56 dB -25.04 dB 1:13 26-Wild Pulse Guitar 1
DR11 -8.20 dB -21.33 dB 1:15 27-Wild Pulse Guitar 2
DR9 -9.38 dB -19.57 dB 1:16 28-Wild Pulse Guitar 3
--------------------------------------------------------------------------------

Number of tracks: 28
Official DR value: DR12

Samplerate: 44100 Hz
Channels: 2
Bits per sample: 16
Bitrate: 574 kbps
Codec: FLAC
================================================================================


All thanks to original releaser








Film at Avaxhome:


Password: designol