ICAEW Financial Accounting Questions and Answers March 2015 to March 2016 {SPirate} | saison 6, épisode 12 | The Terror

VA - Doctor Who: The 50th Anniversary Collection - Original Television Soundtrack 1963-2013 (2014) 11 CD Box Set


VA - Doctor Who: The 50th Anniversary Collection - Original Television Soundtrack 1963-2013 (2014) 11 CD Box Set
EAC | FLAC | Image (Cue&Log) ~ 3.64 Gb | Mp3 (CBR320) ~ 2.04 Gb | Scans included + booklet
Genre: Soundtrack, Score, Special Effects, Electronic | Label: Silva Screen | # WHO50C | Time: 14:12:34

Fifty years, 11 CDs, 11 Doctors and 389 tracks. This is the release that Doctor Who fans worldwide have been waiting for, assembled after years of research and trawls through dusty archives and libraries. It's a comprehensive overview of the very special music that has accompanied the Doctor over his travels through time and space from William Hartnell in 1963 to present day Matt Smith. From Ron Grainer's iconic theme realised by the BBC Radiophonic Workshop's Delia Derbyshire to Murray Gold's orchestral tapestries, this is a musical saga of monumental proportions. The esteemed collection of composers featured include Tristram Cary, Brian Hodgson, Wilfred Josephs, Dudley Simpson, Geoffrey Burgon, Paddy Kingsland, Roger Limb, Malcolm Clarke, Keff McCulloch, Dominic Glynn, John Debney and many more. The lavish 32 page booklet with the set includes liner notes from Doctor Who composer Mark Ayres on the history of music in the series and details of the episodes.







---------------------------------------------------------------------------------




Disc One: The First Doctor - William Hartnell: 1963-1966
EAC | FLAC | Image (Cue&Log) ~ 180 Mb | Mp3 (CBR320) ~ 194 Mb
Time: 01:18:38 | Scans included


Tracklist:

01. Ron Grainer - Doctor Who (Original Theme) (02:22)
02. Delia Derbyshire - Doctor Who (Pilot Theme) (02:05)
03. Brian Hodgson - TARDIS Exterior Hum And Door [Original] (00:23)
04. Brian Hodgson - Entry Into The TARDIS (Full Length Version) (11:56)
05. Brian Hodgson - TARDIS Original Takeoff Sequence (01:47)
06. Delia Derbyshire - Doctor Who (Original Titles Music) (02:09)
07. Arthur Nelson Group - Three Guitars Mood 2 (02:03)
08. Brian Hodgson - TARDIS Takeoff (01:24)
09. Tristram Cary - Forest Atmosphere (01:08)
10. Brian Hodgson - Skaro - Petrified Forest Atmosphere ('Thal Wind') (02:21)
11. Brian Hodgson - TARDIS Computer (01:08)
12. Tristram Cary - Forest With Creature (00:55)
13. Tristram Cary - City Music 1 And 2 (00:56)
14. Brian Hodgson - Dalek City Corridor (02:02)
15. Tristram Cary - The Daleks (00:32)
16. Brian Hodgson - Dalek Control Room (00:34)
17. Tristram Cary - The Storm Continued (Susan Meets Alydon) (02:38)
18. Tristram Cary - The Fight (01:03)
19. Tristram Cary - The Ambush (02:00)
20. Tristram Cary - Rising Tension (01:16)
21. Tristram Cary - Demented Dalek (00:22)
22. Brian Hodgson - Capsule Oscillation (Dalek Destructor Fuse / Bomb Countdown) (00:19)
23. Brian Hodgson - Explosion, TARDIS Stops (01:10)
24. Brian Hodgson - Sleeping Machine (00:52)
25. Brian Hodgson - Sensorite Speech Background (01:11)
26. Dudley Simpson - The Chase (Music And Effects From The Soundtrack) (01:37)
27. Brian Hodgson - Dalek Spaceship Lands (00:17)
28. Brian Hodgson - Dalek Tracking Device (00:36)
29. Brian Hodgson - Dalek Spaceship Takeoff (00:47)
30. Brian Hodgson - TARDIS Lands (00:11)
31. Brian Hodgson - Chumbley (Constant Run) (00:27)
32. Brian Hodgson - Chumbley At Rest (00:28)
33. Les Structures Sonores - Marche (Les Structures Sonores) (02:40)
34. Brian Hodgson - Chumbley Sends Message (00:07)
35. Brian Hodgson - Chumbley Dome (Rises / Falls / Rises / Falls) (00:19)
36. Brian Hodgson - Chumbley Dies (00:12)
37. Tristram Cary - A Strange Sickness (00:44)
38. Tristram Cary - Kembel I (00:46)
39. Tristram Cary - Daleks I (00:41)
40. Brian Hodgson - Activity On Dalek Ship Control Panel (00:46)
41. Tristram Cary - Daleks At The TARDIS (00:25)
42. Tristram Cary - Wall Of Fire (00:24)
43. Tristram Cary - At The City Walls (00:37)
44. Tristram Cary - Leaving Kembel (00:21)
45. Tristram Cary - The Experiment (00:41)
46. Tristram Cary - Invisible Creatures (00:51)
47. Tristram Cary - Dalek Time Machine (00:19)
48. Tristram Cary - The Missing TARDIS (00:51)
49. Tristram Cary - The Tomb (00:54)
50. Tristram Cary - The Heart Of The Mountain (00:35)
51. Tristram Cary - Growing Menace (02:08)
52. Tristram Cary - The Time Destructor (05:17)
53. Lynda Barron - Excerpts From 'The Ballad Of The Last Chance Saloon' (03:51)
54. Brian Hodgson - Transfer Of Human Energy Into Reserve (01:56)
55. Brian Hodgson - Energy Escapes (00:23)
56. Martin Slavin - Space Adventure Part 2 (01:22)
57. Brian Hodgson - Cybership Interior Atmosphere (01:00)
58. Brian Hodgson - Machinery In TARDIS Goes Wild (Regeneration) (01:03)


Exact Audio Copy V1.0 beta 3 from 29. August 2011

EAC extraction logfile from 23. November 2014, 10:32

Various Artists / Doctor Who - The 50th Anniversary Collection (Disc 1)

Used drive : TSSTcorpCDDVDW SH-S202H Adapter: 0 ID: 0

Read mode : Secure
Utilize accurate stream : Yes
Defeat audio cache : Yes
Make use of C2 pointers : No

Read offset correction : 6
Overread into Lead-In and Lead-Out : No
Fill up missing offset samples with silence : Yes
Delete leading and trailing silent blocks : No
Null samples used in CRC calculations : Yes
Used interface : Native Win32 interface for Win NT & 2000

Used output format : Internal WAV Routines
Sample format : 44.100 Hz; 16 Bit; Stereo


TOC of the extracted CD

Track | Start | Length | Start sector | End sector
---------------------------------------------------------
1 | 0:00.00 | 2:22.49 | 0 | 10698
2 | 2:22.49 | 2:05.36 | 10699 | 20109
3 | 4:28.10 | 0:23.70 | 20110 | 21904
4 | 4:52.05 | 11:56.66 | 21905 | 75670
5 | 16:48.71 | 1:47.47 | 75671 | 83742
6 | 18:36.43 | 2:09.07 | 83743 | 93424
7 | 20:45.50 | 2:03.69 | 93425 | 102718
8 | 22:49.44 | 1:24.68 | 102719 | 109086
9 | 24:14.37 | 1:08.11 | 109087 | 114197
10 | 25:22.48 | 2:21.10 | 114198 | 124782
11 | 27:43.58 | 1:08.35 | 124783 | 129917
12 | 28:52.18 | 0:55.07 | 129918 | 134049
13 | 29:47.25 | 0:56.64 | 134050 | 138313
14 | 30:44.14 | 2:02.01 | 138314 | 147464
15 | 32:46.15 | 0:32.65 | 147465 | 149929
16 | 33:19.05 | 0:34.31 | 149930 | 152510
17 | 33:53.36 | 2:38.21 | 152511 | 164381
18 | 36:31.57 | 1:03.01 | 164382 | 169107
19 | 37:34.58 | 2:00.28 | 169108 | 178135
20 | 39:35.11 | 1:16.71 | 178136 | 183906
21 | 40:52.07 | 0:22.10 | 183907 | 185566
22 | 41:14.17 | 0:19.36 | 185567 | 187027
23 | 41:33.53 | 1:10.20 | 187028 | 192297
24 | 42:43.73 | 0:52.74 | 192298 | 196271
25 | 43:36.72 | 1:11.14 | 196272 | 201610
26 | 44:48.11 | 1:37.07 | 201611 | 208892
27 | 46:25.18 | 0:17.06 | 208893 | 210173
28 | 46:42.24 | 0:36.21 | 210174 | 212894
29 | 47:18.45 | 0:47.45 | 212895 | 216464
30 | 48:06.15 | 0:11.56 | 216465 | 217345
31 | 48:17.71 | 0:27.69 | 217346 | 219439
32 | 48:45.65 | 0:28.13 | 219440 | 221552
33 | 49:14.03 | 2:40.33 | 221553 | 233585
34 | 51:54.36 | 0:07.36 | 233586 | 234146
35 | 52:01.72 | 0:19.67 | 234147 | 235638
36 | 52:21.64 | 0:12.16 | 235639 | 236554
37 | 52:34.05 | 0:44.66 | 236555 | 239920
38 | 53:18.71 | 0:46.61 | 239921 | 243431
39 | 54:05.57 | 0:41.03 | 243432 | 246509
40 | 54:46.60 | 0:46.01 | 246510 | 249960
41 | 55:32.61 | 0:25.17 | 249961 | 251852
42 | 55:58.03 | 0:24.55 | 251853 | 253707
43 | 56:22.58 | 0:37.02 | 253708 | 256484
44 | 56:59.60 | 0:21.49 | 256485 | 258108
45 | 57:21.34 | 0:41.38 | 258109 | 261221
46 | 58:02.72 | 0:51.02 | 261222 | 265048
47 | 58:53.74 | 0:19.37 | 265049 | 266510
48 | 59:13.36 | 0:51.21 | 266511 | 270356
49 | 60:04.57 | 0:54.55 | 270357 | 274461
50 | 60:59.37 | 0:35.36 | 274462 | 277122
51 | 61:34.73 | 2:08.33 | 277123 | 286755
52 | 63:43.31 | 5:17.50 | 286756 | 310580
53 | 69:01.06 | 3:51.08 | 310581 | 327913
54 | 72:52.14 | 1:56.13 | 327914 | 336626
55 | 74:48.27 | 0:23.31 | 336627 | 338382
56 | 75:11.58 | 1:22.20 | 338383 | 344552
57 | 76:34.03 | 1:00.60 | 344553 | 349112
58 | 77:34.63 | 1:03.69 | 349113 | 353906


Range status and errors

Selected range

Filename D:Doctor Who - The 50th Anniversary CollectionVarious Artists - Doctor Who - The 50th Anniversary Collection (Disc 1).wav

Peak level 99.8 %
Extraction speed 8.6 X
Range quality 100.0 %
Test CRC 0631E639
Copy CRC 0631E639
Copy OK

No errors occurred


AccurateRip summary

Track 1 accurately ripped (confidence 3) [AB758B86] (AR v2)
Track 2 accurately ripped (confidence 3) [5A128EF0] (AR v2)
Track 3 accurately ripped (confidence 3) [80FF7497] (AR v2)
Track 4 accurately ripped (confidence 3) [98A67D4F] (AR v2)
Track 5 accurately ripped (confidence 3) [6FCC3934] (AR v2)
Track 6 accurately ripped (confidence 3) [DB23950C] (AR v2)
Track 7 accurately ripped (confidence 3) [03DE7AEA] (AR v2)
Track 8 accurately ripped (confidence 3) [11D81006] (AR v2)
Track 9 accurately ripped (confidence 3) [E2DF078B] (AR v2)
Track 10 accurately ripped (confidence 3) [2419A234] (AR v2)
Track 11 accurately ripped (confidence 3) [845C8149] (AR v2)
Track 12 accurately ripped (confidence 3) [75533592] (AR v2)
Track 13 accurately ripped (confidence 3) [F8B2120E] (AR v2)
Track 14 accurately ripped (confidence 3) [5B2E5422] (AR v2)
Track 15 accurately ripped (confidence 3) [0883FA6F] (AR v2)
Track 16 accurately ripped (confidence 3) [ABD8178E] (AR v2)
Track 17 accurately ripped (confidence 2) [1E9EDFF1] (AR v2)
Track 18 accurately ripped (confidence 3) [56BB326E] (AR v2)
Track 19 accurately ripped (confidence 3) [05E99130] (AR v2)
Track 20 accurately ripped (confidence 3) [ADD7C679] (AR v2)
Track 21 accurately ripped (confidence 3) [928C2A55] (AR v2)
Track 22 accurately ripped (confidence 3) [3A90AFD2] (AR v2)
Track 23 accurately ripped (confidence 3) [23697EB6] (AR v2)
Track 24 accurately ripped (confidence 3) [D4230D21] (AR v2)
Track 25 accurately ripped (confidence 3) [FEB68413] (AR v2)
Track 26 accurately ripped (confidence 3) [5D883848] (AR v2)
Track 27 accurately ripped (confidence 3) [CE9B20EF] (AR v2)
Track 28 accurately ripped (confidence 3) [33B4053C] (AR v2)
Track 29 accurately ripped (confidence 3) [A092D117] (AR v2)
Track 30 accurately ripped (confidence 3) [5689A939] (AR v2)
Track 31 accurately ripped (confidence 3) [10EBCE70] (AR v2)
Track 32 accurately ripped (confidence 3) [7F821776] (AR v2)
Track 33 accurately ripped (confidence 3) [4B747FD1] (AR v2)
Track 34 accurately ripped (confidence 3) [B9D94167] (AR v2)
Track 35 accurately ripped (confidence 3) [3E009867] (AR v2)
Track 36 accurately ripped (confidence 3) [250A7F85] (AR v2)
Track 37 accurately ripped (confidence 3) [64EC54E8] (AR v2)
Track 38 accurately ripped (confidence 3) [3B6F7B9F] (AR v2)
Track 39 accurately ripped (confidence 3) [070D3629] (AR v2)
Track 40 accurately ripped (confidence 3) [EDF3A73E] (AR v2)
Track 41 accurately ripped (confidence 3) [3CFCBEF9] (AR v2)
Track 42 accurately ripped (confidence 3) [5D0F4D90] (AR v2)
Track 43 accurately ripped (confidence 3) [3A1BCAE9] (AR v2)
Track 44 accurately ripped (confidence 3) [23ADE325] (AR v2)
Track 45 accurately ripped (confidence 3) [68C785C3] (AR v2)
Track 46 accurately ripped (confidence 3) [D897AC51] (AR v2)
Track 47 accurately ripped (confidence 3) [1EC7939A] (AR v2)
Track 48 accurately ripped (confidence 3) [AC919E0C] (AR v2)
Track 49 accurately ripped (confidence 3) [9EAA40E9] (AR v2)
Track 50 accurately ripped (confidence 3) [8E65B8ED] (AR v2)
Track 51 accurately ripped (confidence 3) [91FABDBD] (AR v2)
Track 52 accurately ripped (confidence 3) [417ECAF7] (AR v2)
Track 53 accurately ripped (confidence 3) [E54D5F38] (AR v2)
Track 54 accurately ripped (confidence 3) [4EE08B21] (AR v2)
Track 55 accurately ripped (confidence 3) [4423E138] (AR v2)
Track 56 accurately ripped (confidence 3) [A3BD235D] (AR v2)
Track 57 accurately ripped (confidence 3) [E41BE05B] (AR v2)
Track 58 accurately ripped (confidence 3) [63B4423D] (AR v2)

All tracks accurately ripped

End of status report

==== Log checksum D0053E0BACF83A4B3064D05D6F1166B2A5F37AE36BB3EAFEC8F620E8A4F28DA9 ====

foobar2000 1.2 / Dynamic Range Meter 1.1.1
log date: 2014-12-16 18:59:28

--------------------------------------------------------------------------------
Analyzed: Brian Hodgson / Doctor Who - The 50th Anniversary Collection (Disc 1)
--------------------------------------------------------------------------------

DR Peak RMS Duration Track
--------------------------------------------------------------------------------
DR5 -9.28 dB -17.99 dB 0:24 03-TARDIS Exterior Hum And Door [Original]
DR9 -1.96 dB -15.40 dB 11:57 04-Entry Into The TARDIS (Full Length Version)
DR12 -0.15 dB -17.08 dB 1:48 05-TARDIS Original Takeoff Sequence
DR6 -0.39 dB -10.38 dB 1:25 08-TARDIS Takeoff
DR9 -4.93 dB -19.65 dB 2:21 10-Skaro - Petrified Forest Atmosphere ('Thal Wind')
DR8 -6.90 dB -17.12 dB 1:08 11-TARDIS Computer
DR12 -7.65 dB -23.44 dB 2:02 14-Dalek City Corridor
DR10 -3.78 dB -15.16 dB 0:34 16-Dalek Control Room
DR6 -10.07 dB -16.53 dB 0:19 22-Capsule Oscillation (Dalek Destructor Fuse / Bomb Countdown)
DR10 -0.25 dB -18.89 dB 1:10 23-Explosion, TARDIS Stops
DR8 -13.58 dB -23.44 dB 0:53 24-Sleeping Machine
DR9 -5.67 dB -19.68 dB 1:11 25-Sensorite Speech Background
DR7 -0.14 dB -13.12 dB 0:17 27-Dalek Spaceship Lands
DR16 -7.84 dB -24.93 dB 0:36 28-Dalek Tracking Device
DR4 -0.33 dB -11.38 dB 0:48 29-Dalek Spaceship Takeoff
DR13 -0.51 dB -15.04 dB 0:12 30-TARDIS Lands
DR11 -4.94 dB -17.82 dB 0:28 31-Chumbley (Constant Run)
DR4 -11.94 dB -19.46 dB 0:28 32-Chumbley At Rest
DR4 -10.26 dB -15.16 dB 0:07 34-Chumbley Sends Message
DR3 -9.56 dB -14.64 dB 0:20 35-Chumbley Dome (Rises / Falls / Rises / Falls)
DR8 -5.07 dB -19.78 dB 0:12 36-Chumbley Dies
DR14 -2.94 dB -18.96 dB 0:46 40-Activity On Dalek Ship Control Panel
DR10 -1.82 dB -13.86 dB 1:56 54-Transfer Of Human Energy Into Reserve
DR9 -6.89 dB -19.81 dB 0:23 55-Energy Escapes
DR12 -9.21 dB -22.03 dB 1:01 57-Cybership Interior Atmosphere
DR10 -2.69 dB -14.66 dB 1:04 58-Machinery In TARDIS Goes Wild (Regeneration)
--------------------------------------------------------------------------------

Number of tracks: 26
Official DR value: DR9

Samplerate: 44100 Hz
Channels: 2
Bits per sample: 16
Bitrate: 302 kbps
Codec: FLAC
================================================================================

--------------------------------------------------------------------------------
Analyzed: Delia Derbyshire / Doctor Who - The 50th Anniversary Collection (Disc 1) (1-2)
Dudley Simpson / Doctor Who - The 50th Anniversary Collection (Disc 1) (3)
Les Structures Sonores / Doctor Who - The 50th Anniversary Collection (Disc 1) (4)
Lynda Barron / Doctor Who - The 50th Anniversary Collection (Disc 1) (5)
Martin Slavin / Doctor Who - The 50th Anniversary Collection (Disc 1) (6)
--------------------------------------------------------------------------------

DR Peak RMS Duration Track
--------------------------------------------------------------------------------
DR8 -0.50 dB -12.31 dB 2:05 02-Doctor Who (Pilot Theme)
DR7 -1.35 dB -11.75 dB 2:09 06-Doctor Who (Original Titles Music)
DR12 -0.01 dB -15.10 dB 1:37 26-The Chase (Music And Effects From The Soundtrack)
DR11 -0.05 dB -14.72 dB 2:40 33-Marche (Les Structures Sonores)
DR11 -0.13 dB -14.59 dB 3:51 53-Excerpts From 'The Ballad Of The Last Chance Saloon'
DR10 -0.08 dB -13.38 dB 1:22 56-Space Adventure Part 2
--------------------------------------------------------------------------------

Number of tracks: 6
Official DR value: DR10

Samplerate: 44100 Hz
Channels: 2
Bits per sample: 16
Bitrate: 302 kbps
Codec: FLAC
================================================================================

--------------------------------------------------------------------------------
Analyzed: Ron Grainer / Doctor Who - The 50th Anniversary Collection (Disc 1) (1)
Tristram Cary / Doctor Who - The 50th Anniversary Collection (Disc 1) (2-25)
--------------------------------------------------------------------------------

DR Peak RMS Duration Track
--------------------------------------------------------------------------------
DR8 -1.21 dB -11.70 dB 2:23 01-Doctor Who (Original Theme)
DR12 -4.23 dB -18.11 dB 1:08 09-Forest Atmosphere
DR13 -0.06 dB -17.28 dB 0:55 12-Forest With Creature
DR9 -0.33 dB -12.91 dB 0:57 13-City Music 1 And 2
DR10 -0.73 dB -14.46 dB 0:33 15-The Daleks
DR11 -1.04 dB -16.50 dB 2:38 17-The Storm Continued (Susan Meets Alydon)
DR8 -0.16 dB -12.72 dB 1:03 18-The Fight
DR12 -0.78 dB -15.27 dB 2:00 19-The Ambush
DR10 -0.51 dB -16.73 dB 1:17 20-Rising Tension
DR8 -2.06 dB -14.25 dB 0:22 21-Demented Dalek
DR9 -2.71 dB -16.38 dB 0:45 37-A Strange Sickness
DR11 -0.37 dB -15.53 dB 0:47 38-Kembel I
DR8 -4.71 dB -16.42 dB 0:41 39-Daleks I
DR8 -2.62 dB -14.24 dB 0:25 41-Daleks At The TARDIS
DR7 -1.13 dB -14.49 dB 0:25 42-Wall Of Fire
DR9 -4.84 dB -17.33 dB 0:37 43-At The City Walls
DR11 -0.11 dB -14.66 dB 0:22 44-Leaving Kembel
DR9 -0.60 dB -17.35 dB 0:42 45-The Experiment
DR8 -0.10 dB -14.06 dB 0:51 46-Invisible Creatures
DR6 -4.13 dB -15.16 dB 0:19 47-Dalek Time Machine
DR10 -2.99 dB -16.30 dB 0:51 48-The Missing TARDIS
DR10 -0.86 dB -14.84 dB 0:55 49-The Tomb
DR9 -0.10 dB -12.67 dB 0:35 50-The Heart Of The Mountain
DR10 -2.26 dB -14.43 dB 2:08 51-Growing Menace
DR9 -0.71 dB -12.40 dB 5:18 52-The Time Destructor
--------------------------------------------------------------------------------

Number of tracks: 25
Official DR value: DR9

Samplerate: 44100 Hz
Channels: 2
Bits per sample: 16
Bitrate: 302 kbps
Codec: FLAC
================================================================================
foobar2000 1.2 / Dynamic Range Meter 1.1.1
log date: 2014-12-16 18:59:21

--------------------------------------------------------------------------------
Statistics for: 07-Three Guitars Mood 2
Number of samples: 5464872
Duration: 2:04
--------------------------------------------------------------------------------

Left Right

Peak Value: -0.66 dB --- -0.66 dB
Avg RMS: -12.36 dB --- -12.36 dB
DR channel: 9.88 dB --- 9.88 dB
--------------------------------------------------------------------------------

Official DR Value: DR10

Samplerate: 44100 Hz
Channels: 2
Bits per sample: 16
Bitrate: 302 kbps
Codec: FLAC
================================================================================


---------------------------------------------------------------------------------




Disc Two: The Second Doctor - Patrick Troughton: 1966-1969
EAC | FLAC | Image (Cue&Log) ~ 158 Mb | Mp3 (CBR320) ~ 192 Mb
Time: 01:17:44 | Scans included


Tracklist:

01. Brian Hodgson - Regeneration Runs Down (00:10)
02. Brian Hodgson - The Doctor's Transitional Trauma (00:53)
03. Dudley Simpson - The Fish People (00:38)
04. Brian Hodgson - Heartbeat Chase (01:57)
05. Dudley Simpson & Delia Derbyshire - Chromophone Band (01:56)
06. Brian Hodgson - Controller Chimes (00:10)
07. John Baker - Muzak (From '..Time In Advance') (03:19)
08. Brian Hodgson - Propaganda Sleep Machine (01:08)
09. Dudley Simpson - The Macra Terror (Incidental Music Excerpt) (00:32)
10. Delia Derbyshire - Doctor Who (New Opening, 1967 - Full Version) (02:20)
11. Paul Bonneau And His Orchestra - Univers Sideral (02:26)
12. Wilfred Josephs - Space Time Music Part 1 (01:21)
13. Brian Hodgson - Yeti Control Sphere Move, Call And Answer (00:22)
14. Dudley Simpson - The Ice Warriors One: Titles (00:52)
15. Dudley Simpson - The Ice Warriors Two-Six: Titles (00:44)
16. Wilfred Josephs - Space Time Music Part 2 (01:19)
17. Brian Hodgson - Sting & Web (Cocooning Interior / Cobweb Pulsates) (02:04)
18. Brian Hodgson - 4 Stings (00:18)
19. Dudley Simpson - Fury From The Deep - Mr. Oak And Mr. Quill (00:40)
20. Brian Hodgson - Lead-In To Cyber Planner (00:14)
21. Brian Hodgson - Cyber Planner Background (00:37)
22. Brian Hodgson - Cybermen Stab & Music (01:32)
23. Brian Hodgson - Rocket Stab (00:07)
24. Brian Hodgson - Birth Of Cybermats (00:44)
25. Brian Hodgson - Cybermats Attracted To Wheel (00:40)
26. Brian Hodgson - Rocket In Space (01:49)
27. Brian Hodgson - Interior Rocket (Suspense Music) (01:55)
28. Brian Hodgson - Servo Robot Music (01:27)
29. Brian Hodgson - Wheel Stab (00:14)
30. Brian Hodgson - Cosmos Atmosphere (01:08)
31. Brian Hodgson - Alien Ship Music (01:00)
32. Brian Hodgson - Jarvis In A Dream State (00:47)
33. Brian Hodgson - 2 Stabs (00:12)
34. Brian Hodgson - TARDIS (New Landing) (00:19)
35. Brian Hodgson - Dominators' Saucer Power On (00:40)
36. Brian Hodgson - Sting (00:05)
37. Brian Hodgson - Statues Move (A And B) (00:36)
38. Brian Hodgson - Galaxy Atmosphere (01:04)
39. Brian Hodgson - Dominators' Saucer Interior (02:04)
40. Brian Hodgson - Tension Builder (A) (00:45)
41. Brian Hodgson - Tension Builder (C) (00:40)
42. Brian Hodgson - Tension Builder (D) (01:06)
43. Brian Hodgson - Low Sting (00:10)
44. Brian Hodgson - TARDIS, Extra Power Unit Plugged In (01:53)
45. Brian Hodgson - Zoe's Theme (01:20)
46. Brian Hodgson - White Void (01:17)
47. Don Harper - The Dark Side Of The Moon (00:31)
48. Don Harper - The Company (01:31)
49. John Baker - Muzak (From '..Time In Advance') (02:44)
50. Don Harper - Brigadier Lethbridge-Stewart (01:22)
51. Don Harper - Mysteries (01:30)
52. Brian Hodgson - Cyberman Brought To Life (01:13)
53. Brian Hodgson - Cyber Invasion (02:13)
54. Brian Hodgson - The Learning Hall (02:40)
55. Brian Hodgson - Entry Into The Machine (01:33)
56. Brian Hodgson - Sting (00:19)
57. Brian Hodgson - Machine And City Theme (01:49)
58. Brian Hodgson - Kroton Theme (02:14)
59. Dudley Simpson - The Seeds Of Death: Titles (00:35)
60. Dudley Simpson - Moon Control (00:24)
61. Brian Hodgson - Diffraction (Ice Warrior Gun Impact) (00:22)
62. Dudley Simpson - Ice Warriors Music (00:25)
63. Brian Hodgson - Moon Homing Beam Call Signal & Reply (00:21)
64. Brian Hodgson - TARDIS Lands (00:26)
65. Brian Hodgson - Alien Control Centre (00:27)
66. Brian Hodgson - Time Zone Atmosphere (00:40)
67. Brian Hodgson - Dimensional Control (SIDRAT Dimensions Contract) (00:50)
68. Brian Hodgson - War Lord Arrival (00:16)
69. Brian Hodgson - War Chief Music (00:14)
70. Brian Hodgson - Silver Box (The Doctor Calls For Help) (01:03)
71. Brian Hodgson - Time Lord Court (03:53)


Exact Audio Copy V1.0 beta 3 from 29. August 2011

EAC extraction logfile from 23. November 2014, 10:55

Various Artists / Doctor Who - The 50th Anniversary Collection (Disc 2)

Used drive : TSSTcorpCDDVDW SH-S202H Adapter: 0 ID: 0

Read mode : Secure
Utilize accurate stream : Yes
Defeat audio cache : Yes
Make use of C2 pointers : No

Read offset correction : 6
Overread into Lead-In and Lead-Out : No
Fill up missing offset samples with silence : Yes
Delete leading and trailing silent blocks : No
Null samples used in CRC calculations : Yes
Used interface : Native Win32 interface for Win NT & 2000

Used output format : Internal WAV Routines
Sample format : 44.100 Hz; 16 Bit; Stereo


TOC of the extracted CD

Track | Start | Length | Start sector | End sector
---------------------------------------------------------
1 | 0:00.00 | 0:10.70 | 0 | 819
2 | 0:10.70 | 0:53.52 | 820 | 4846
3 | 1:04.47 | 0:38.32 | 4847 | 7728
4 | 1:43.04 | 1:57.27 | 7729 | 16530
5 | 3:40.31 | 1:56.49 | 16531 | 25279
6 | 5:37.05 | 0:10.56 | 25280 | 26085
7 | 5:47.61 | 3:19.36 | 26086 | 41046
8 | 9:07.22 | 1:08.73 | 41047 | 46219
9 | 10:16.20 | 0:32.06 | 46220 | 48625
10 | 10:48.26 | 2:20.70 | 48626 | 59195
11 | 13:09.21 | 2:26.21 | 59196 | 70166
12 | 15:35.42 | 1:21.06 | 70167 | 76247
13 | 16:56.48 | 0:22.60 | 76248 | 77957
14 | 17:19.33 | 0:52.46 | 77958 | 81903
15 | 18:12.04 | 0:44.21 | 81904 | 85224
16 | 18:56.25 | 1:19.28 | 85225 | 91177
17 | 20:15.53 | 2:04.70 | 91178 | 100547
18 | 22:20.48 | 0:18.64 | 100548 | 101961
19 | 22:39.37 | 0:40.72 | 101962 | 105033
20 | 23:20.34 | 0:14.52 | 105034 | 106135
21 | 23:35.11 | 0:37.04 | 106136 | 108914
22 | 24:12.15 | 1:32.26 | 108915 | 115840
23 | 25:44.41 | 0:07.35 | 115841 | 116400
24 | 25:52.01 | 0:44.14 | 116401 | 119714
25 | 26:36.15 | 0:40.13 | 119715 | 122727
26 | 27:16.28 | 1:49.33 | 122728 | 130935
27 | 29:05.61 | 1:55.48 | 130936 | 139608
28 | 31:01.34 | 1:27.59 | 139609 | 146192
29 | 32:29.18 | 0:14.47 | 146193 | 147289
30 | 32:43.65 | 1:08.19 | 147290 | 152408
31 | 33:52.09 | 1:00.50 | 152409 | 156958
32 | 34:52.59 | 0:47.51 | 156959 | 160534
33 | 35:40.35 | 0:12.26 | 160535 | 161460
34 | 35:52.61 | 0:19.33 | 161461 | 162918
35 | 36:12.19 | 0:40.17 | 162919 | 165935
36 | 36:52.36 | 0:05.51 | 165936 | 166361
37 | 36:58.12 | 0:36.13 | 166362 | 169074
38 | 37:34.25 | 1:04.20 | 169075 | 173894
39 | 38:38.45 | 2:04.32 | 173895 | 183226
40 | 40:43.02 | 0:45.03 | 183227 | 186604
41 | 41:28.05 | 0:40.56 | 186605 | 189660
42 | 42:08.61 | 1:06.25 | 189661 | 194635
43 | 43:15.11 | 0:10.48 | 194636 | 195433
44 | 43:25.59 | 1:53.22 | 195434 | 203930
45 | 45:19.06 | 1:20.24 | 203931 | 209954
46 | 46:39.30 | 1:17.54 | 209955 | 215783
47 | 47:57.09 | 0:31.18 | 215784 | 218126
48 | 48:28.27 | 1:31.38 | 218127 | 224989
49 | 49:59.65 | 2:44.37 | 224990 | 237326
50 | 52:44.27 | 1:22.31 | 237327 | 243507
51 | 54:06.58 | 1:30.66 | 243508 | 250323
52 | 55:37.49 | 1:13.46 | 250324 | 255844
53 | 56:51.20 | 2:13.73 | 255845 | 265892
54 | 59:05.18 | 2:40.12 | 265893 | 277904
55 | 61:45.30 | 1:33.38 | 277905 | 284917
56 | 63:18.68 | 0:19.22 | 284918 | 286364
57 | 63:38.15 | 1:49.57 | 286365 | 294596
58 | 65:27.72 | 2:14.27 | 294597 | 304673
59 | 67:42.24 | 0:35.68 | 304674 | 307366
60 | 68:18.17 | 0:24.47 | 307367 | 309213
61 | 68:42.64 | 0:22.70 | 309214 | 310933
62 | 69:05.59 | 0:25.42 | 310934 | 312850
63 | 69:31.26 | 0:21.62 | 312851 | 314487
64 | 69:53.13 | 0:26.74 | 314488 | 316511
65 | 70:20.12 | 0:27.29 | 316512 | 318565
66 | 70:47.41 | 0:40.44 | 318566 | 321609
67 | 71:28.10 | 0:50.13 | 321610 | 325372
68 | 72:18.23 | 0:16.21 | 325373 | 326593
69 | 72:34.44 | 0:14.07 | 326594 | 327650
70 | 72:48.51 | 1:03.06 | 327651 | 332381
71 | 73:51.57 | 3:53.09 | 332382 | 349865


Range status and errors

Selected range

Filename D:Doctor Who - The 50th Anniversary CollectionVarious Artists - Doctor Who - The 50th Anniversary Collection (Disc 2).wav

Peak level 99.5 %
Extraction speed 8.4 X
Range quality 100.0 %
Test CRC 1979086B
Copy CRC 1979086B
Copy OK

No errors occurred


AccurateRip summary

Track 1 accurately ripped (confidence 3) [7DF727D7] (AR v2)
Track 2 accurately ripped (confidence 3) [A918F30F] (AR v2)
Track 3 accurately ripped (confidence 3) [3622D3A8] (AR v2)
Track 4 accurately ripped (confidence 3) [C9B44CAF] (AR v2)
Track 5 accurately ripped (confidence 3) [0C04F527] (AR v2)
Track 6 accurately ripped (confidence 3) [A054269F] (AR v2)
Track 7 accurately ripped (confidence 3) [84F4D32B] (AR v2)
Track 8 accurately ripped (confidence 3) [E085E14A] (AR v2)
Track 9 accurately ripped (confidence 3) [5C81AE4A] (AR v2)
Track 10 accurately ripped (confidence 3) [78C385BA] (AR v2)
Track 11 accurately ripped (confidence 3) [E86AD662] (AR v2)
Track 12 accurately ripped (confidence 3) [CC778CD0] (AR v2)
Track 13 accurately ripped (confidence 3) [7551FB08] (AR v2)
Track 14 accurately ripped (confidence 3) [AFFA9D2A] (AR v2)
Track 15 accurately ripped (confidence 3) [2A693AF9] (AR v2)
Track 16 accurately ripped (confidence 3) [6B44D194] (AR v2)
Track 17 accurately ripped (confidence 3) [54324880] (AR v2)
Track 18 accurately ripped (confidence 3) [7E188077] (AR v2)
Track 19 accurately ripped (confidence 3) [3F3F0580] (AR v2)
Track 20 accurately ripped (confidence 3) [F5290D1C] (AR v2)
Track 21 accurately ripped (confidence 3) [1A739FCB] (AR v2)
Track 22 accurately ripped (confidence 3) [C3BDB824] (AR v2)
Track 23 accurately ripped (confidence 3) [8977095B] (AR v2)
Track 24 accurately ripped (confidence 3) [BAA8DDDB] (AR v2)
Track 25 accurately ripped (confidence 3) [484D0D1C] (AR v2)
Track 26 accurately ripped (confidence 3) [664CC3D0] (AR v2)
Track 27 accurately ripped (confidence 3) [06A41B85] (AR v2)
Track 28 accurately ripped (confidence 3) [C35A68B1] (AR v2)
Track 29 accurately ripped (confidence 3) [78689941] (AR v2)
Track 30 accurately ripped (confidence 3) [FC4806DA] (AR v2)
Track 31 accurately ripped (confidence 3) [AE48462E] (AR v2)
Track 32 accurately ripped (confidence 3) [B641AE8B] (AR v2)
Track 33 accurately ripped (confidence 3) [ED373A87] (AR v2)
Track 34 accurately ripped (confidence 3) [EC55CC78] (AR v2)
Track 35 accurately ripped (confidence 3) [BA100F40] (AR v2)
Track 36 not present in database
Track 37 accurately ripped (confidence 3) [D669F62A] (AR v2)
Track 38 accurately ripped (confidence 3) [DF1A5BC1] (AR v2)
Track 39 accurately ripped (confidence 3) [7A7FAD0C] (AR v2)
Track 40 accurately ripped (confidence 3) [EC1BC587] (AR v2)
Track 41 accurately ripped (confidence 3) [F9FF4179] (AR v2)
Track 42 accurately ripped (confidence 3) [71A21BCB] (AR v2)
Track 43 accurately ripped (confidence 3) [F1738043] (AR v2)
Track 44 accurately ripped (confidence 3) [E228EC0B] (AR v2)
Track 45 accurately ripped (confidence 3) [8002DBB0] (AR v2)
Track 46 accurately ripped (confidence 3) [7F64D63A] (AR v2)
Track 47 accurately ripped (confidence 3) [6A30F387] (AR v2)
Track 48 accurately ripped (confidence 3) [9CC51464] (AR v2)
Track 49 accurately ripped (confidence 3) [1D909702] (AR v2)
Track 50 accurately ripped (confidence 3) [4CB2A543] (AR v2)
Track 51 accurately ripped (confidence 3) [8C5C0987] (AR v2)
Track 52 accurately ripped (confidence 3) [038785BF] (AR v2)
Track 53 accurately ripped (confidence 3) [D66F6616] (AR v2)
Track 54 accurately ripped (confidence 3) [8739BD8B] (AR v2)
Track 55 accurately ripped (confidence 3) [C96355E2] (AR v2)
Track 56 accurately ripped (confidence 3) [EAF7D26B] (AR v2)
Track 57 accurately ripped (confidence 3) [D3E9FCD4] (AR v2)
Track 58 accurately ripped (confidence 3) [822CAA04] (AR v2)
Track 59 accurately ripped (confidence 3) [6A6A9D02] (AR v2)
Track 60 accurately ripped (confidence 3) [6C842A6B] (AR v2)
Track 61 accurately ripped (confidence 3) [52E2CA88] (AR v2)
Track 62 accurately ripped (confidence 3) [351A9C86] (AR v2)
Track 63 accurately ripped (confidence 3) [2C1585F9] (AR v2)
Track 64 accurately ripped (confidence 3) [36999071] (AR v2)
Track 65 accurately ripped (confidence 3) [AD847952] (AR v2)
Track 66 accurately ripped (confidence 3) [F4954A8B] (AR v2)
Track 67 accurately ripped (confidence 3) [2C937A96] (AR v2)
Track 68 accurately ripped (confidence 3) [F83F88DA] (AR v2)
Track 69 accurately ripped (confidence 3) [0A2D7527] (AR v2)
Track 70 accurately ripped (confidence 3) [7A3B6F84] (AR v2)
Track 71 accurately ripped (confidence 3) [3C112F17] (AR v2)

70 трек(и) скопированы точно
1 трек(и) не содержатся в базе AccurateRip

Some tracks could not be verified as accurate

End of status report

==== Log checksum 286F9B92CEFFEF800914D099DDEE70903F344B37BBD1659781BE535E6B07810D ====

foobar2000 1.2 / Dynamic Range Meter 1.1.1
log date: 2014-12-16 18:59:50

--------------------------------------------------------------------------------
Analyzed: Brian Hodgson / Doctor Who - The 50th Anniversary Collection (Disc 2)
--------------------------------------------------------------------------------

DR Peak RMS Duration Track
--------------------------------------------------------------------------------
DR12 -1.44 dB -13.80 dB 0:11 01-Regeneration Runs Down
DR7 -7.49 dB -17.09 dB 0:54 02-The Doctor's Transitional Trauma
DR9 -2.24 dB -14.07 dB 1:57 04-Heartbeat Chase
DR12 -2.99 dB -15.44 dB 0:11 06-Controller Chimes
DR16 -2.84 dB -23.54 dB 1:09 08-Propaganda Sleep Machine
DR8 -5.91 dB -18.29 dB 0:23 13-Yeti Control Sphere Move, Call And Answer
DR10 -2.63 dB -16.18 dB 2:05 17-Sting & Web (Cocooning Interior / Cobweb Pulsates)
DR3 -1.38 dB -12.46 dB 0:19 18-4 Stings
DR9 -1.29 dB -14.03 dB 0:15 20-Lead-In To Cyber Planner
DR6 -7.03 dB -14.53 dB 0:37 21-Cyber Planner Background
DR8 -0.67 dB -12.19 dB 1:32 22-Cybermen Stab & Music
DR14 -1.02 dB -14.61 dB 0:07 23-Rocket Stab
DR11 -4.48 dB -21.15 dB 0:44 24-Birth Of Cybermats
DR22 -0.98 dB -26.32 dB 0:40 25-Cybermats Attracted To Wheel
DR9 -5.63 dB -15.81 dB 1:49 26-Rocket In Space
DR13 -3.52 dB -21.06 dB 1:56 27-Interior Rocket (Suspense Music)
DR10 -5.36 dB -19.65 dB 1:28 28-Servo Robot Music
DR2 -2.16 dB -17.41 dB 0:15 29-Wheel Stab
DR6 -7.21 dB -16.36 dB 1:08 30-Cosmos Atmosphere
DR9 -3.82 dB -15.27 dB 1:01 31-Alien Ship Music
DR12 -2.46 dB -18.42 dB 0:48 32-Jarvis In A Dream State
DR10 -0.81 dB -17.80 dB 0:12 33-2 Stabs
DR8 -0.12 dB -14.84 dB 0:19 34-TARDIS (New Landing)
DR7 -5.28 dB -12.99 dB 0:40 35-Dominators' Saucer Power On
DR18 -0.90 dB -18.71 dB 0:06 36-Sting
DR6 -10.69 dB -19.26 dB 0:36 37-Statues Move (A And B)
DR8 -5.15 dB -18.23 dB 1:04 38-Galaxy Atmosphere
DR9 -3.66 dB -17.04 dB 2:04 39-Dominators' Saucer Interior
DR10 -6.06 dB -17.19 dB 0:45 40-Tension Builder (A)
DR10 -3.68 dB -18.28 dB 0:41 41-Tension Builder (C)
DR11 -0.41 dB -13.99 dB 1:06 42-Tension Builder (D)
DR6 -0.30 dB -16.13 dB 0:11 43-Low Sting
DR10 -0.44 dB -14.97 dB 1:53 44-TARDIS, Extra Power Unit Plugged In
DR9 -6.82 dB -18.41 dB 1:20 45-Zoe's Theme
DR8 -6.64 dB -17.22 dB 1:18 46-White Void
DR7 -1.70 dB -14.25 dB 1:14 52-Cyberman Brought To Life
DR8 -2.79 dB -11.74 dB 2:14 53-Cyber Invasion
DR10 -5.75 dB -17.68 dB 2:40 54-The Learning Hall
DR6 -3.70 dB -12.39 dB 1:34 55-Entry Into The Machine
DR9 -1.30 dB -18.74 dB 0:19 56-Sting
DR10 -2.51 dB -15.25 dB 1:50 57-Machine And City Theme
DR11 -1.92 dB -17.18 dB 2:14 58-Kroton Theme
DR13 -0.32 dB -14.30 dB 0:23 61-Diffraction (Ice Warrior Gun Impact)
DR8 -9.05 dB -19.60 dB 0:22 63-Moon Homing Beam Call Signal & Reply
DR9 -0.83 dB -15.43 dB 0:27 64-TARDIS Lands
DR6 -9.88 dB -16.23 dB 0:27 65-Alien Control Centre
DR9 -4.50 dB -18.06 dB 0:41 66-Time Zone Atmosphere
DR9 -1.37 dB -12.37 dB 0:50 67-Dimensional Control (SIDRAT Dimensions Contract)
DR9 -3.76 dB -14.57 dB 0:16 68-War Lord Arrival
DR6 -0.83 dB -11.12 dB 0:14 69-War Chief Music
DR9 -0.14 dB -13.29 dB 1:03 70-Silver Box (The Doctor Calls For Help)
DR7 -6.97 dB -16.80 dB 3:53 71-Time Lord Court
--------------------------------------------------------------------------------

Number of tracks: 52
Official DR value: DR9

Samplerate: 44100 Hz
Channels: 2
Bits per sample: 16
Bitrate: 268 kbps
Codec: FLAC
================================================================================

--------------------------------------------------------------------------------
Analyzed: Delia Derbyshire / Doctor Who - The 50th Anniversary Collection (Disc 2) (1)
Don Harper / Doctor Who - The 50th Anniversary Collection (Disc 2) (2-5)
--------------------------------------------------------------------------------

DR Peak RMS Duration Track
--------------------------------------------------------------------------------
DR9 -0.82 dB -12.06 dB 2:21 10-Doctor Who (New Opening, 1967 - Full Version)
DR12 -0.59 dB -15.16 dB 0:31 47-The Dark Side Of The Moon
DR12 -0.04 dB -14.99 dB 1:32 48-The Company
DR12 -0.52 dB -13.32 dB 1:22 50-Brigadier Lethbridge-Stewart
DR11 -1.71 dB -16.95 dB 1:31 51-Mysteries
--------------------------------------------------------------------------------

Number of tracks: 5
Official DR value: DR11

Samplerate: 44100 Hz
Channels: 2
Bits per sample: 16
Bitrate: 268 kbps
Codec: FLAC
================================================================================

--------------------------------------------------------------------------------
Statistics for: 05-Chromophone Band
Number of samples: 5144412
Duration: 1:57
--------------------------------------------------------------------------------

Left Right

Peak Value: -1.10 dB --- -1.10 dB
Avg RMS: -13.65 dB --- -13.65 dB
DR channel: 10.16 dB --- 10.16 dB
--------------------------------------------------------------------------------

Official DR Value: DR10

Samplerate: 44100 Hz
Channels: 2
Bits per sample: 16
Bitrate: 268 kbps
Codec: FLAC
================================================================================
--------------------------------------------------------------------------------
Analyzed: Dudley Simpson / Doctor Who - The 50th Anniversary Collection (Disc 2)
--------------------------------------------------------------------------------

DR Peak RMS Duration Track
--------------------------------------------------------------------------------
DR11 -1.61 dB -18.26 dB 0:38 03-The Fish People
DR11 -1.76 dB -16.48 dB 0:32 09-The Macra Terror (Incidental Music Excerpt)
DR6 -2.13 dB -10.82 dB 0:53 14-The Ice Warriors One: Titles
DR8 -1.04 dB -11.67 dB 0:44 15-The Ice Warriors Two-Six: Titles
DR14 -0.28 dB -18.05 dB 0:41 19-Fury From The Deep - Mr. Oak And Mr. Quill
DR10 -1.15 dB -13.07 dB 0:36 59-The Seeds Of Death: Titles
DR8 -4.75 dB -18.52 dB 0:25 60-Moon Control
DR11 -0.10 dB -15.36 dB 0:26 62-Ice Warriors Music
--------------------------------------------------------------------------------

Number of tracks: 8
Official DR value: DR10

Samplerate: 44100 Hz
Channels: 2
Bits per sample: 16
Bitrate: 268 kbps
Codec: FLAC
================================================================================

--------------------------------------------------------------------------------
Analyzed: John Baker / Doctor Who - The 50th Anniversary Collection (Disc 2)
--------------------------------------------------------------------------------

DR Peak RMS Duration Track
--------------------------------------------------------------------------------
DR10 -3.16 dB -18.06 dB 3:19 07-Muzak (From '..Time In Advance')
DR12 -0.74 dB -16.80 dB 2:44 49-Muzak (From '..Time In Advance')
--------------------------------------------------------------------------------

Number of tracks: 2
Official DR value: DR11

Samplerate: 44100 Hz
Channels: 2
Bits per sample: 16
Bitrate: 268 kbps
Codec: FLAC
================================================================================

--------------------------------------------------------------------------------
Analyzed: Paul Bonneau And His Orchestra / Doctor Who - The 50th Anniversary Collection (Disc 2) (1)
Wilfred Josephs / Doctor Who - The 50th Anniversary Collection (Disc 2) (2-3)
--------------------------------------------------------------------------------

DR Peak RMS Duration Track
--------------------------------------------------------------------------------
DR12 -0.52 dB -17.40 dB 2:26 11-Univers Sideral
DR10 -0.97 dB -15.15 dB 1:21 12-Space Time Music Part 1
DR11 -0.75 dB -14.51 dB 1:19 16-Space Time Music Part 2
--------------------------------------------------------------------------------

Number of tracks: 3
Official DR value: DR11

Samplerate: 44100 Hz
Channels: 2
Bits per sample: 16
Bitrate: 268 kbps
Codec: FLAC
================================================================================


---------------------------------------------------------------------------------




Disc Three: The Third Doctor - Jon Pertwee: 1970-1974
EAC | FLAC | Image (Cue&Log) ~ 225 Mb | Mp3 (CBR320) ~ 194 Mb
Time: 01:19:07 | Scans included


Tracklist:

01. Delia Derbyshire - Doctor Who: Opening Title Theme (1970) (00:45)
02. Brian Hodgson - TARDIS Tries To Take Off (00:32)
03. Carey Blyton - Music From 'Doctor Who And The Silurians' (07:35)
04. Brian Hodgson - Outer Space (02:05)
05. Brian Hodgson - Tardis Control On & Warp Transfer (00:23)
06. Delia Derbyshire - Blue Veils And Golden Sands (03:26)
07. Delia Derbyshire - The Delian Mode (05:32)
08. St. George - Battle Theme (01:02)
09. Dudley Simpson - The Master's Theme (00:43)
10. Dudley Simpson - Hypnosis Music (00:34)
11. Dudley Simpson - Dover Castle (00:29)
12. Brian Hodgson - Keller Machine Appears And Vanishes (00:22)
13. Dudley Simpson - Keller Machine Theme (00:44)
14. Brian Hodgson - Axos Cell Interior Atmosphere (00:50)
15. Brian Hodgson - Brain Centre Atmosphere (00:16)
16. Brian Hodgson - Copy Machine Tickover (00:16)
17. Dudley Simpson - The Axons Approach (01:45)
18. Brian Hodgson - TARDIS Lands (00:22)
19. Brian Hodgson - TARDIS Interior (Stationary) (00:56)
20. Brian Hodgson - TARDIS Interior (In Flight) (00:54)
21. Malcolm Clarke - Music From 'The Sea Devils' (05:24)
22. Brian Hodgson - Transfer Machine Arrival (00:17)
23. Tristram Cary - Music From 'The Mutants' (07:13)
24. Delia Derbyshire - Doctor Who [Stereo Version 1972] (02:23)
25. Delia Derbyshire, Brian Hodgson & Paddy Kingsland - Doctor Who [Delaware Version 1972] (02:10)
26. Brian Hodgson - Time Lords Background (01:20)
27. Dudley Simpson - Music From 'Carnival Of Monsters' Episode 1 (03:35)
28. Brian Hodgson - Frontier In Space - Hyperspace Jump (00:27)
29. Dudley Simpson - Music From 'Frontier In Space' Episodes 1 And 2 (05:39)
30. Brian Hodgson - TARDIS Malfunctions (Sequence) (02:00)
31. Brian Hodgson - Exxilon City Beacon (00:54)
32. Carey Blyton - Music From 'Death To The Daleks' (Extended Suite) (10:27)
33. Brian Hodgson - Aggedor's Temple Atmosphere, Peladon (01:38)
34. Dudley Simpson - Music From 'Planet Of The Spiders' Part 2 (02:44)
35. Brian Hodgson - Planet Of The Spiders - Metebelis III Atmosphere (01:52)
36. Delia Derbyshire - Doctor Who Closing Title Theme (1970) (01:14)


Exact Audio Copy V1.0 beta 3 from 29. August 2011

EAC extraction logfile from 23. November 2014, 11:15

Various Artists / Doctor Who - The 50th Anniversary Collection (Disc 3)

Used drive : TSSTcorpCDDVDW SH-S202H Adapter: 0 ID: 0

Read mode : Secure
Utilize accurate stream : Yes
Defeat audio cache : Yes
Make use of C2 pointers : No

Read offset correction : 6
Overread into Lead-In and Lead-Out : No
Fill up missing offset samples with silence : Yes
Delete leading and trailing silent blocks : No
Null samples used in CRC calculations : Yes
Used interface : Native Win32 interface for Win NT & 2000

Used output format : Internal WAV Routines
Sample format : 44.100 Hz; 16 Bit; Stereo


TOC of the extracted CD

Track | Start | Length | Start sector | End sector
---------------------------------------------------------
1 | 0:00.00 | 0:45.15 | 0 | 3389
2 | 0:45.15 | 0:32.24 | 3390 | 5813
3 | 1:17.39 | 7:35.68 | 5814 | 40006
4 | 8:53.32 | 2:05.56 | 40007 | 49437
5 | 10:59.13 | 0:23.52 | 49438 | 51214
6 | 11:22.65 | 3:26.35 | 51215 | 66699
7 | 14:49.25 | 5:32.27 | 66700 | 91626
8 | 20:21.52 | 1:02.17 | 91627 | 96293
9 | 21:23.69 | 0:43.49 | 96294 | 99567
10 | 22:07.43 | 0:34.58 | 99568 | 102175
11 | 22:42.26 | 0:29.53 | 102176 | 104403
12 | 23:12.04 | 0:22.71 | 104404 | 106124
13 | 23:35.00 | 0:44.20 | 106125 | 109444
14 | 24:19.20 | 0:50.14 | 109445 | 113208
15 | 25:09.34 | 0:16.62 | 113209 | 114470
16 | 25:26.21 | 0:16.53 | 114471 | 115723
17 | 25:42.74 | 1:45.39 | 115724 | 123637
18 | 27:28.38 | 0:22.55 | 123638 | 125342
19 | 27:51.18 | 0:56.37 | 125343 | 129579
20 | 28:47.55 | 0:54.62 | 129580 | 133691
21 | 29:42.42 | 5:24.44 | 133692 | 158035
22 | 35:07.11 | 0:17.53 | 158036 | 159363
23 | 35:24.64 | 7:13.17 | 159364 | 191855
24 | 42:38.06 | 2:23.46 | 191856 | 202626
25 | 45:01.52 | 2:10.07 | 202627 | 212383
26 | 47:11.59 | 1:20.25 | 212384 | 218408
27 | 48:32.09 | 3:35.06 | 218409 | 234539
28 | 52:07.15 | 0:27.58 | 234540 | 236622
29 | 52:34.73 | 5:39.36 | 236623 | 262083
30 | 58:14.34 | 2:00.73 | 262084 | 271156
31 | 60:15.32 | 0:54.33 | 271157 | 275239
32 | 61:09.65 | 10:27.13 | 275240 | 322277
33 | 71:37.03 | 1:38.73 | 322278 | 329700
34 | 73:16.01 | 2:44.34 | 329701 | 342034
35 | 76:00.35 | 1:52.70 | 342035 | 350504
36 | 77:53.30 | 1:14.15 | 350505 | 356069


Range status and errors

Selected range

Filename D:Doctor Who - The 50th Anniversary CollectionVarious Artists - Doctor Who - The 50th Anniversary Collection (Disc 3).wav

Peak level 99.9 %
Extraction speed 8.6 X
Range quality 99.9 %
Test CRC 21EF7CA2
Copy CRC 21EF7CA2
Copy OK

No errors occurred


AccurateRip summary

Track 1 accurately ripped (confidence 3) [0CE42FDA] (AR v2)
Track 2 accurately ripped (confidence 3) [6FBF4179] (AR v2)
Track 3 accurately ripped (confidence 3) [953EC445] (AR v2)
Track 4 accurately ripped (confidence 3) [8933BDA5] (AR v2)
Track 5 accurately ripped (confidence 3) [A85F39CC] (AR v2)
Track 6 accurately ripped (confidence 3) [503A6E75] (AR v2)
Track 7 accurately ripped (confidence 3) [5DE26B3A] (AR v2)
Track 8 accurately ripped (confidence 3) [50799FAF] (AR v2)
Track 9 accurately ripped (confidence 3) [1EEC80FA] (AR v2)
Track 10 accurately ripped (confidence 3) [23C81081] (AR v2)
Track 11 accurately ripped (confidence 3) [19930919] (AR v2)
Track 12 accurately ripped (confidence 3) [90F9DAA3] (AR v2)
Track 13 accurately ripped (confidence 3) [97AD4DC4] (AR v2)
Track 14 accurately ripped (confidence 3) [A3FD529F] (AR v2)
Track 15 accurately ripped (confidence 3) [6C6C4B87] (AR v2)
Track 16 accurately ripped (confidence 3) [78B8198F] (AR v2)
Track 17 accurately ripped (confidence 3) [AABC2E64] (AR v2)
Track 18 accurately ripped (confidence 3) [B7B1209C] (AR v2)
Track 19 accurately ripped (confidence 3) [F99C60F8] (AR v2)
Track 20 accurately ripped (confidence 3) [AD043240] (AR v2)
Track 21 accurately ripped (confidence 3) [0C4977FC] (AR v2)
Track 22 accurately ripped (confidence 3) [E144F289] (AR v2)
Track 23 accurately ripped (confidence 3) [A75ED65F] (AR v2)
Track 24 accurately ripped (confidence 3) [F8B64E2A] (AR v2)
Track 25 accurately ripped (confidence 3) [CD8913C9] (AR v2)
Track 26 accurately ripped (confidence 3) [ECCD3E80] (AR v2)
Track 27 accurately ripped (confidence 3) [20AD1631] (AR v2)
Track 28 accurately ripped (confidence 3) [4453EEE0] (AR v2)
Track 29 accurately ripped (confidence 3) [0DE06F9B] (AR v2)
Track 30 accurately ripped (confidence 3) [434AC0E6] (AR v2)
Track 31 accurately ripped (confidence 3) [8A25B423] (AR v2)
Track 32 accurately ripped (confidence 3) [F525D280] (AR v2)
Track 33 accurately ripped (confidence 3) [E51369DB] (AR v2)
Track 34 accurately ripped (confidence 3) [86262B92] (AR v2)
Track 35 accurately ripped (confidence 3) [790C7216] (AR v2)
Track 36 accurately ripped (confidence 3) [5300DBE1] (AR v2)

All tracks accurately ripped

End of status report

==== Log checksum E0EB1BEEB210E232F485F4631A30EB823FC5CCEFAD4D31FA3A4C8200C66F4F50 ====

foobar2000 1.2 / Dynamic Range Meter 1.1.1
log date: 2014-12-16 18:59:59

--------------------------------------------------------------------------------
Analyzed: Brian Hodgson / Doctor Who - The 50th Anniversary Collection (Disc 3)
--------------------------------------------------------------------------------

DR Peak RMS Duration Track
--------------------------------------------------------------------------------
DR9 -0.90 dB -14.43 dB 0:32 02-TARDIS Tries To Take Off
DR5 -6.46 dB -13.76 dB 2:06 04-Outer Space
DR7 -0.38 dB -13.45 dB 0:24 05-Tardis Control On & Warp Transfer
DR7 -2.77 dB -12.98 dB 0:23 12-Keller Machine Appears And Vanishes
DR10 -4.38 dB -15.42 dB 0:50 14-Axos Cell Interior Atmosphere
DR12 -4.67 dB -17.64 dB 0:17 15-Brain Centre Atmosphere
DR8 -4.55 dB -13.66 dB 0:17 16-Copy Machine Tickover
DR9 -0.06 dB -14.58 dB 0:23 18-TARDIS Lands
DR3 -14.55 dB -18.97 dB 0:56 19-TARDIS Interior (Stationary)
DR7 -12.14 dB -20.12 dB 0:55 20-TARDIS Interior (In Flight)
DR5 -1.34 dB -9.47 dB 0:18 22-Transfer Machine Arrival
DR7 -5.46 dB -15.41 dB 1:20 26-Time Lords Background
DR6 -1.68 dB -9.77 dB 0:28 28-Frontier In Space - Hyperspace Jump
DR10 -0.58 dB -15.71 dB 2:01 30-TARDIS Malfunctions (Sequence)
DR14 -1.49 dB -17.72 dB 0:54 31-Exxilon City Beacon
DR9 -4.27 dB -19.18 dB 1:39 33-Aggedor's Temple Atmosphere, Peladon
DR9 -1.54 dB -14.45 dB 1:53 35-Planet Of The Spiders - Metebelis III Atmosphere
--------------------------------------------------------------------------------

Number of tracks: 17
Official DR value: DR8

Samplerate: 44100 Hz
Channels: 2
Bits per sample: 16
Bitrate: 376 kbps
Codec: FLAC
================================================================================

--------------------------------------------------------------------------------
Analyzed: Carey Blyton / Doctor Who - The 50th Anniversary Collection (Disc 3)
--------------------------------------------------------------------------------

DR Peak RMS Duration Track
--------------------------------------------------------------------------------
DR11 -0.12 dB -15.81 dB 7:36 03-Music From 'Doctor Who And The Silurians'
DR12 -0.10 dB -15.88 dB 10:27 32-Music From 'Death To The Daleks' (Extended Suite)
--------------------------------------------------------------------------------

Number of tracks: 2
Official DR value: DR11

Samplerate: 44100 Hz
Channels: 2
Bits per sample: 16
Bitrate: 376 kbps
Codec: FLAC
================================================================================

--------------------------------------------------------------------------------
Statistics for: 25-Doctor Who [Delaware Version 1972]
Number of samples: 5737116
Duration: 2:10
--------------------------------------------------------------------------------

Left Right

Peak Value: -0.07 dB --- -2.12 dB
Avg RMS: -13.80 dB --- -14.87 dB
DR channel: 9.50 dB --- 10.17 dB
--------------------------------------------------------------------------------

Official DR Value: DR10

Samplerate: 44100 Hz
Channels: 2
Bits per sample: 16
Bitrate: 376 kbps
Codec: FLAC
================================================================================
--------------------------------------------------------------------------------
Analyzed: Delia Derbyshire / Doctor Who - The 50th Anniversary Collection (Disc 3)
--------------------------------------------------------------------------------

DR Peak RMS Duration Track
--------------------------------------------------------------------------------
DR7 -0.16 dB -10.27 dB 0:45 01-Doctor Who: Opening Title Theme (1970)
DR11 -1.02 dB -18.27 dB 3:26 06-Blue Veils And Golden Sands
DR12 -4.40 dB -22.47 dB 5:32 07-The Delian Mode
DR9 -0.70 dB -13.59 dB 2:24 24-Doctor Who [Stereo Version 1972]
DR7 -0.44 dB -9.75 dB 1:14 36-Doctor Who Closing Title Theme (1970)
--------------------------------------------------------------------------------

Number of tracks: 5
Official DR value: DR9

Samplerate: 44100 Hz
Channels: 2
Bits per sample: 16
Bitrate: 376 kbps
Codec: FLAC
================================================================================

--------------------------------------------------------------------------------
Analyzed: Dudley Simpson / Doctor Who - The 50th Anniversary Collection (Disc 3)
--------------------------------------------------------------------------------

DR Peak RMS Duration Track
--------------------------------------------------------------------------------
DR10 -2.56 dB -15.04 dB 0:44 09-The Master's Theme
DR8 -2.60 dB -15.81 dB 0:35 10-Hypnosis Music
DR9 -1.32 dB -11.51 dB 0:30 11-Dover Castle
DR9 -0.57 dB -14.71 dB 0:44 13-Keller Machine Theme
DR10 -0.07 dB -12.37 dB 1:46 17-The Axons Approach
DR12 -0.10 dB -16.53 dB 3:35 27-Music From 'Carnival Of Monsters' Episode