English Tomb Raider (2018) | Crumbs (2015-) | Jack Matthews

Вход в свой аккаунт

Или войдите через соц. сети

John Carpenter and Alan Howarth - Halloween II: Expanded Original Motion Picture Soundtrack (1981)


John Carpenter and Alan Howarth - Halloween II: Expanded Original Motion Picture Soundtrack (1981) 30th Anniversary Limited Edition
EAC | FLAC | Tracks (Cue&Log) ~ 502 Mb (incl 5%) | Mp3 (CBR320) ~ 188 Mb (incl 5%) | Scans included
Genre: Soundtrack, Score | Label: AHI Records | # AHICD 005 | Time: 01:10:27

“ The soundtrack features music composed & performed by John Carpenter (HALLOWEEN, ESCAPE FROM NEW YORK) in association with Alan Howarth (THE LOST EMPIRE, HEADLESS) for the 1981 cult horror sequel directed by Rick Rosenthal, written by John Carpenter and Debra Hill, starring Jamie Lee Curtis, Donald Pleasance, Lance Guest, Nancy Stephens, Pamela Shoop, Tawny Moyer, Leo Rossi and legendary stuntman Dick Warlock as The Shape.

HALLOWEEN II is a direct sequel to the first film, set on the same night of October 31, 1978 in the fictional Midwest town of Haddonfield, as the seemingly indestructible Michael Myers follows his intended victim Laurie Strode (Jamie Lee Curtis) to a nearby hospital. Produced on a shoestring budget and released in 1978, the original HALLOWEEN earned over 47 million dollars at the box office, making it one of the most successful independent films for many years. With this tremendous success, it would only be a matter of time until there was a sequel. While the first film was produced independently of any major studios, the sequel was produced by Universal, with full creative control in the hands of John Carpenter and Debra Hill.

The film's score is a variation of John Carpenter s compositions for the first HALLOWEEN, particularly the main theme's familiar piano melody played in a 5/4 time rhythm. This time, the score was performed on synthesizer organs rather than on piano. For this special 30th Anniversary Edition of HALLOWEEN II, the original 1981 album presentation is included, newly remastered. In addition, a special suite of seven tracks has been prepared, consisting of the entire film score sequenced in chronological order and including previously unreleased music. In addition, Alan Howarth has contributed exclusive notes for the booklet.

Alan Howarth, in addition to being a composer, is an accomplished sound designer and editor, having worked on films such as STAR TREK: THE MOTION PICTURE, POLTERGEIST, TOTAL RECALL, ARMY OF DARKNESS, BRAM STOKER S DRACULA, STARGATE and many others. He has been a frequent music collaborator with John Carpenter on his films beginning with ESCAPE FROM NEW YORK in 1980 and including HALLOWEEN II & III, CHRISTINE, BIG TROUBLE IN LITTLE CHINA, THEY LIVE and PRINCE OF DARKNESS and Alan has scored many films on his own, including THE LOST EMPIRE, RETRIBUTION, HALLOWEEN 4 & 5, THE DENTIST, HEADLESS, BOO! And, most recently, EVILUTION and BASEMENT JACK.
”


“ The boogie man is going to get you! Just the word "Halloween" alone made you believe it could be made into a good movie. As for John Carpenter's original "Halloween" it couldn't be further from the truth. But with it's success, comes the sequel(s). And low and behold, born was "Halloween II." This is a great soundtrack. To me, it is superior to the original. Not in terms of composition but in overall production. Carpenter got to go into a studio and make a really, quintessential soundtrack for the "Shape" Micheal Myers. It is virtually the same music, but more amplified. I recommend owning this CD to accompany the original.

As for this re-release (during the time of the dreaded Rob Zombie version), it's an expand edition. It has a host of additional tracks, with various differences. All sounds great. It also allows one to example different takes and how composers come up with their final work.

Overall a great CD. I only counted it as a 4 out of 5, primarily because it mirrors the original too closely. If it was a different movie and the original didn't exist, then it would've been listed as a 5.

Review by James H. Wallace Jr., Amazon.com
”








Tracklist:

01. Halloween II Theme (04:29)
02. Laurie's Theme (02:54)
03. He knows where she is (01:10)
04. Laurie and Jimmy (03:05)
05. Still he kills (04:32)
06. The shape enters Laurie's Room (01:35)
07. Mrs. Alves (01:45)
08. Flats in the parking lot (01:27)
09. Michael's sister? (03:05)
10. The shape stalks again (03:05)
11. Operation room (01:51)
12. Mr. Sandman (02:26)
13. Halloween II suite A (10:05)
14. Halloween II suite B (05:04)
15. Halloween II suite C (06:36)
16. Halloween II suite D (03:50)
17. Halloween II suite E (08:09)
18. Halloween II suite F (05:09)


Exact Audio Copy V0.99 prebeta 5 from 4. May 2009

EAC extraction logfile from 14. October 2009, 15:57

John Carpenter / Alan Howarth / Halloween II 30th Anniversary Edition

Used drive : MATSHITADVD-ROM SR-8589 Adapter: 0 ID: 0

Read mode : Secure
Utilize accurate stream : Yes
Defeat audio cache : Yes
Make use of C2 pointers : No

Read offset correction : 103
Overread into Lead-In and Lead-Out : No
Fill up missing offset samples with silence : Yes
Delete leading and trailing silent blocks : No
Null samples used in CRC calculations : Yes
Used interface : Native Win32 interface for Win NT & 2000
Gap handling : Appended to previous track

Used output format : User Defined Encoder
Selected bitrate : 768 kBit/s
Quality : High
Add ID3 tag : No
Command line compressor : C:Program FilesExact Audio CopyFLACFLAC.EXE
Additional command line options : -6 -V -T "ARTIST=%a" -T "TITLE=%t" -T "ALBUM=%g" -T "DATE=%y" -T "TRACKNUMBER=%n" -T "GENRE=%m" -T "COMMENT=%e" %s -o %d


TOC of the extracted CD

Track | Start | Length | Start sector | End sector
---------------------------------------------------------
1 | 0:00.00 | 4:29.49 | 0 | 20223
2 | 4:29.49 | 2:54.61 | 20224 | 33334
3 | 7:24.35 | 1:10.19 | 33335 | 38603
4 | 8:34.54 | 3:05.13 | 38604 | 52491
5 | 11:39.67 | 4:32.60 | 52492 | 72951
6 | 16:12.52 | 1:35.21 | 72952 | 80097
7 | 17:47.73 | 1:45.57 | 80098 | 88029
8 | 19:33.55 | 1:27.43 | 88030 | 94597
9 | 21:01.23 | 3:05.47 | 94598 | 108519
10 | 24:06.70 | 3:05.37 | 108520 | 122431
11 | 27:12.32 | 1:51.17 | 122432 | 130773
12 | 29:03.49 | 2:26.41 | 130774 | 141764
13 | 31:30.15 | 10:05.65 | 141765 | 187204
14 | 41:36.05 | 5:04.67 | 187205 | 210071
15 | 46:40.72 | 6:36.24 | 210072 | 239795
16 | 53:17.21 | 3:50.26 | 239796 | 257071
17 | 57:07.47 | 8:09.58 | 257072 | 293804
18 | 65:17.30 | 5:09.33 | 293805 | 317012


Track 1

Filename C:MOVIESJohn Carpenter , Alan Howarth - 2009 - Halloween II 30th Anniversary Edition1 - Halloween II Theme.wav

Pre-gap length 0:00:02.00

Peak level 99.6 %
Track quality 99.9 %
Test CRC 6EC5996E
Copy CRC 6EC5996E
Track not present in AccurateRip database
Copy OK

Track 2

Filename C:MOVIESJohn Carpenter , Alan Howarth - 2009 - Halloween II 30th Anniversary Edition2 - Laurie's Theme.wav

Pre-gap length 0:00:00.52

Peak level 47.1 %
Track quality 100.0 %
Test CRC 235E61DA
Copy CRC 235E61DA
Track not present in AccurateRip database
Copy OK

Track 3

Filename C:MOVIESJohn Carpenter , Alan Howarth - 2009 - Halloween II 30th Anniversary Edition3 - He knows where she is.wav

Pre-gap length 0:00:00.44

Peak level 79.0 %
Track quality 100.0 %
Test CRC DC51D6C1
Copy CRC DC51D6C1
Track not present in AccurateRip database
Copy OK

Track 4

Filename C:MOVIESJohn Carpenter , Alan Howarth - 2009 - Halloween II 30th Anniversary Edition4 - Laurie and Jimmy.wav

Pre-gap length 0:00:00.88

Peak level 57.5 %
Track quality 100.0 %
Test CRC 9CEE3C98
Copy CRC 9CEE3C98
Track not present in AccurateRip database
Copy OK

Track 5

Filename C:MOVIESJohn Carpenter , Alan Howarth - 2009 - Halloween II 30th Anniversary Edition5 - Still he kills.wav

Pre-gap length 0:00:00.68

Peak level 99.8 %
Track quality 100.0 %
Test CRC 64C8CB7A
Copy CRC 64C8CB7A
Track not present in AccurateRip database
Copy OK

Track 6

Filename C:MOVIESJohn Carpenter , Alan Howarth - 2009 - Halloween II 30th Anniversary Edition6 - The shape enters Laurie's Room.wav

Pre-gap length 0:00:00.57

Peak level 87.0 %
Track quality 99.8 %
Test CRC 8F64EAAB
Copy CRC 8F64EAAB
Track not present in AccurateRip database
Copy OK

Track 7

Filename C:MOVIESJohn Carpenter , Alan Howarth - 2009 - Halloween II 30th Anniversary Edition7 - Mrs. Alves.wav

Pre-gap length 0:00:00.89

Peak level 69.2 %
Track quality 100.0 %
Test CRC D6E7A550
Copy CRC D6E7A550
Track not present in AccurateRip database
Copy OK

Track 8

Filename C:MOVIESJohn Carpenter , Alan Howarth - 2009 - Halloween II 30th Anniversary Edition8 - Flats in the parking lot.wav

Pre-gap length 0:00:01.38

Peak level 61.4 %
Track quality 100.0 %
Test CRC 13B06DFF
Copy CRC 13B06DFF
Track not present in AccurateRip database
Copy OK

Track 9

Filename C:MOVIESJohn Carpenter , Alan Howarth - 2009 - Halloween II 30th Anniversary Edition9 - Michael's sister .wav

Pre-gap length 0:00:00.53

Peak level 55.0 %
Track quality 99.9 %
Test CRC 3008785E
Copy CRC 3008785E
Track not present in AccurateRip database
Copy OK

Track 10

Filename C:MOVIESJohn Carpenter , Alan Howarth - 2009 - Halloween II 30th Anniversary Edition10 - The shape stalks again.wav

Pre-gap length 0:00:00.69

Peak level 96.1 %
Track quality 100.0 %
Test CRC C75E5B34
Copy CRC C75E5B34
Track not present in AccurateRip database
Copy OK

Track 11

Filename C:MOVIESJohn Carpenter , Alan Howarth - 2009 - Halloween II 30th Anniversary Edition11 - Operation room.wav

Pre-gap length 0:00:00.68

Peak level 94.4 %
Track quality 99.9 %
Test CRC EC32270D
Copy CRC EC32270D
Track not present in AccurateRip database
Copy OK

Track 12

Filename C:MOVIESJohn Carpenter , Alan Howarth - 2009 - Halloween II 30th Anniversary Edition12 - Mr. Sandman.wav

Pre-gap length 0:00:00.05

Peak level 84.1 %
Track quality 100.0 %
Test CRC 43AD972D
Copy CRC 43AD972D
Track not present in AccurateRip database
Copy OK

Track 13

Filename C:MOVIESJohn Carpenter , Alan Howarth - 2009 - Halloween II 30th Anniversary Edition13 - Halloween II suite A.wav

Pre-gap length 0:00:00.94

Peak level 98.8 %
Track quality 100.0 %
Test CRC 2669A5A2
Copy CRC 2669A5A2
Track not present in AccurateRip database
Copy OK

Track 14

Filename C:MOVIESJohn Carpenter , Alan Howarth - 2009 - Halloween II 30th Anniversary Edition14 - Halloween II suite B.wav

Pre-gap length 0:00:01.01

Peak level 99.6 %
Track quality 100.0 %
Test CRC F519E31B
Copy CRC F519E31B
Track not present in AccurateRip database
Copy OK

Track 15

Filename C:MOVIESJohn Carpenter , Alan Howarth - 2009 - Halloween II 30th Anniversary Edition15 - Halloween II suite C.wav

Pre-gap length 0:00:01.06

Peak level 98.8 %
Track quality 100.0 %
Test CRC 3020E67A
Copy CRC 3020E67A
Track not present in AccurateRip database
Copy OK

Track 16

Filename C:MOVIESJohn Carpenter , Alan Howarth - 2009 - Halloween II 30th Anniversary Edition16 - Halloween II suite D.wav

Pre-gap length 0:00:00.93

Peak level 94.8 %
Track quality 100.0 %
Test CRC F4B3C8FC
Copy CRC F4B3C8FC
Track not present in AccurateRip database
Copy OK

Track 17

Filename C:MOVIESJohn Carpenter , Alan Howarth - 2009 - Halloween II 30th Anniversary Edition17 - Halloween II suite E.wav

Pre-gap length 0:00:00.12

Peak level 99.2 %
Track quality 99.9 %
Test CRC 32642465
Copy CRC 32642465
Track not present in AccurateRip database
Copy OK

Track 18

Filename C:MOVIESJohn Carpenter , Alan Howarth - 2009 - Halloween II 30th Anniversary Edition18 - Halloween II suite F.wav

Pre-gap length 0:00:00.10

Peak level 98.8 %
Track quality 100.0 %
Test CRC D880E02A
Copy CRC D880E02A
Track not present in AccurateRip database
Copy OK


None of the tracks are present in the AccurateRip database

No errors occurred

End of status report

foobar2000 1.2 / Dynamic Range Meter 1.1.1
log date: 2014-10-31 15:11:46

--------------------------------------------------------------------------------
Analyzed: John Carpenter and Alan Howarth / Halloween II: 30th Anniversary Edition
--------------------------------------------------------------------------------

DR Peak RMS Duration Track
--------------------------------------------------------------------------------
DR9 -0.03 dB -11.12 dB 4:30 01-Halloween II Theme
DR9 -6.54 dB -16.43 dB 2:55 02-Laurie's Theme
DR9 -2.05 dB -13.60 dB 1:10 03-He knows where she is
DR10 -4.80 dB -16.96 dB 3:05 04-Laurie and Jimmy
DR10 -0.01 dB -11.94 dB 4:33 05-Still he kills
DR9 -1.20 dB -12.02 dB 1:35 06-The shape enters Laurie's Room
DR10 -3.19 dB -16.43 dB 1:46 07-Mrs. Alves
DR8 -4.23 dB -15.04 dB 1:28 08-Flats in the parking lot
DR9 -5.18 dB -16.78 dB 3:06 09-Michael's sister?
DR10 -0.35 dB -13.78 dB 3:05 10-The shape stalks again
DR10 -0.49 dB -13.44 dB 1:51 11-Operation room
DR11 -1.50 dB -14.89 dB 2:27 12-Mr. Sandman
DR9 -0.10 dB -12.81 dB 10:06 13-Halloween II suite A
DR9 -0.03 dB -11.22 dB 5:05 14-Halloween II suite B
DR12 -0.10 dB -16.27 dB 6:36 15-Halloween II suite C
DR9 -0.46 dB -14.38 dB 3:50 16-Halloween II suite D
DR9 -0.06 dB -11.30 dB 8:10 17-Halloween II suite E
DR10 -0.10 dB -13.23 dB 5:09 18-Halloween II suite F
--------------------------------------------------------------------------------

Number of tracks: 18
Official DR value: DR10

Samplerate: 44100 Hz
Channels: 2
Bits per sample: 16
Bitrate: 1042 kbps
Codec: FLAC
================================================================================



All thanks to original releaser











Password: designol