Piper L 4a Cub Oy Ecv Prop Strikes Ground | Episode nВ° 13 | Solo: A Star Wars Story (2018) English Movie 720p HDCAMRip 1GB 350MB x264

Вход в свой аккаунт

Или войдите через соц. сети

John Carpenter & Alan Howarth - Big Trouble In Little China: Complete Original Motion Picture Soundtrack (1986) 2CD


John Carpenter & Alan Howarth - Big Trouble In Little China: Complete Original Motion Picture Soundtrack (1986) 2CD Limited Edition 2008
EAC | FLAC | Tracks (Cue&Log) ~ 479 Mb (incl 5%) | Mp3 (CBR320) ~ 240 Mb (incl 5%) | Scans included
Genre: Soundtrack, Score | Label: La-La Land Records | # LLLCD 1086 | Time: 01:36:29

“ Presenting John Carpenter & Alan Howarth’s complete score to the legendary 1986 20th Century Fox cult actioner BIG TROUBLE IN LITTLE CHINA, starring Kurt Russell and directed by John Carpenter. Fully remastered and complete, for the first time anywhere, Carpenter & Howarth’s music demonstrates a mastery of synth composition and performance with an iconic score that is inseparable from the action and fun of the film itself. Truly music to “shake the pillars of heaven!” CD includes a 20-Page booklet with exclusive, in-depth liner notes that include comments from the co-composers. This is a limited edition of 3000 Units. ”








Tracklist:

CD1:

01. Prologue (02:15)
02. Pork Chop Express (Main Title) (04:04)
03. Abduction At Airport (04:19)
04. The Alley (Procession) (01:13)
05. The Alley (War) (02:30)
06. The Storms (02:44)
07. Tenement - White Tiger (03:48)
08. Here Come The Storms (04:15)
09. Wing Kong Exchange (04:41)
10. Lo Pan's Domain - Looking For A Girl (03:16)
11. Friends Of Yours? - Escape Iron Basis (07:19)
12. Escape From Wing Kong (05:37)
13. Hide (04:34)

CD2:

01. Call The Police (07:31)
02. Dragon Eyes (01:11)
03. Into The Spirit Path (07:05)
04. The Great Arcade (07:53)
05. The Final Escape (Lo Pan's Demise - Getaway) (07:01)
06. Goodbye Jack (03:13)
07. Big Trouble In Little China (End Credits - Album Version) (Performed by The Coupe De Villes) (03:22)
08. Stingers Montage (05:23)
09. Big Trouble In Little China (Original Version) (Performed by The Coupe De Villes) (03:01)


Exact Audio Copy V0.99 prebeta 4 from 23. January 2008

EAC extraction logfile from 3. March 2009, 17:46

John Carpenter / Alan Howarth / Big Trouble in Little China (Disc 1 of 2)

Used drive : HP DVD Writer 840x Adapter: 1 ID: 0

Read mode : Secure
Utilize accurate stream : Yes
Defeat audio cache : Yes
Make use of C2 pointers : No

Read offset correction : 102
Overread into Lead-In and Lead-Out : No
Fill up missing offset samples with silence : Yes
Delete leading and trailing silent blocks : No
Null samples used in CRC calculations : Yes
Used interface : Installed external ASPI interface
Gap handling : Appended to previous track

Used output format : User Defined Encoder
Selected bitrate : 192 kBit/s
Quality : High
Add ID3 tag : No
Command line compressor : C:Program FilesFLACflac.exe
Additional command line options : -8 -A tukey(0.25) -A gauss(0.1875) -b 4096 -V -T "artist=%a" -T "title=%t" -T "album=%g" -T "date=%y" -T "tracknumber=%n" -T "genre=%m" %s --sector-align


TOC of the extracted CD

Track | Start | Length | Start sector | End sector
---------------------------------------------------------
1 | 0:00.00 | 2:15.00 | 0 | 10124
2 | 2:15.00 | 4:04.51 | 10125 | 28475
3 | 6:19.51 | 4:19.73 | 28476 | 47973
4 | 10:39.49 | 1:13.55 | 47974 | 53503
5 | 11:53.29 | 2:30.43 | 53504 | 64796
6 | 14:23.72 | 2:44.72 | 64797 | 77168
7 | 17:08.69 | 3:48.69 | 77169 | 94337
8 | 20:57.63 | 4:15.56 | 94338 | 113518
9 | 25:13.44 | 4:41.61 | 113519 | 134654
10 | 29:55.30 | 3:16.32 | 134655 | 149386
11 | 33:11.62 | 7:19.40 | 149387 | 182351
12 | 40:31.27 | 5:37.43 | 182352 | 207669
13 | 46:08.70 | 4:34.63 | 207670 | 228282


Track 1

Filename N:MusicBig Trouble In Little ChinaBig Trouble In Little China [FLAC]Disc 11 - Prologue.wav

Pre-gap length 0:00:02.00

Peak level 52.5 %
Track quality 100.0 %
Test CRC 3F341F67
Copy CRC 3F341F67
Copy OK

Track 2

Filename N:MusicBig Trouble In Little ChinaBig Trouble In Little China [FLAC]Disc 12 - Pork Chop Express (Main Title).wav

Peak level 100.0 %
Track quality 100.0 %
Test CRC A7F293D0
Copy CRC A7F293D0
Copy OK

Track 3

Filename N:MusicBig Trouble In Little ChinaBig Trouble In Little China [FLAC]Disc 13 - Abduction at Airport.wav

Pre-gap length 0:00:04.00

Peak level 91.9 %
Track quality 99.9 %
Test CRC 32D1DB1F
Copy CRC 32D1DB1F
Copy OK

Track 4

Filename N:MusicBig Trouble In Little ChinaBig Trouble In Little China [FLAC]Disc 14 - The Alley (Procession).wav

Pre-gap length 0:00:03.00

Peak level 51.4 %
Track quality 99.8 %
Test CRC BABC4AB3
Copy CRC BABC4AB3
Copy OK

Track 5

Filename N:MusicBig Trouble In Little ChinaBig Trouble In Little China [FLAC]Disc 15 - The Alley (War).wav

Pre-gap length 0:00:02.00

Peak level 97.8 %
Track quality 100.0 %
Test CRC 3F96C96D
Copy CRC 3F96C96D
Copy OK

Track 6

Filename N:MusicBig Trouble In Little ChinaBig Trouble In Little China [FLAC]Disc 16 - The Storms.wav

Peak level 100.0 %
Track quality 100.0 %
Test CRC D29F1A5F
Copy CRC D29F1A5F
Copy OK

Track 7

Filename N:MusicBig Trouble In Little ChinaBig Trouble In Little China [FLAC]Disc 17 - Tenement,White Tiger.wav

Pre-gap length 0:00:03.00

Peak level 80.0 %
Track quality 100.0 %
Test CRC F056CA0B
Copy CRC F056CA0B
Copy OK

Track 8

Filename N:MusicBig Trouble In Little ChinaBig Trouble In Little China [FLAC]Disc 18 - Here Come the Storms.wav

Peak level 90.5 %
Track quality 100.0 %
Test CRC B589F06F
Copy CRC B589F06F
Copy OK

Track 9

Filename N:MusicBig Trouble In Little ChinaBig Trouble In Little China [FLAC]Disc 19 - Wing Kong Exchange.wav

Pre-gap length 0:00:01.00

Peak level 93.2 %
Track quality 100.0 %
Test CRC BC6EA455
Copy CRC BC6EA455
Copy OK

Track 10

Filename N:MusicBig Trouble In Little ChinaBig Trouble In Little China [FLAC]Disc 110 - Lo Pan's Domain,Looking for a Girl.wav

Pre-gap length 0:00:02.00

Peak level 96.2 %
Track quality 100.0 %
Test CRC 3A77DB22
Copy CRC 3A77DB22
Copy OK

Track 11

Filename N:MusicBig Trouble In Little ChinaBig Trouble In Little China [FLAC]Disc 111 - Friends of Yours ,Escape Iron Basin.wav

Peak level 98.3 %
Track quality 100.0 %
Test CRC A6767E1A
Copy CRC A6767E1A
Copy OK

Track 12

Filename N:MusicBig Trouble In Little ChinaBig Trouble In Little China [FLAC]Disc 112 - Escape from Wing Kong.wav

Pre-gap length 0:00:02.00

Peak level 98.9 %
Track quality 100.0 %
Test CRC DC3AF3F8
Copy CRC DC3AF3F8
Copy OK

Track 13

Filename N:MusicBig Trouble In Little ChinaBig Trouble In Little China [FLAC]Disc 113 - Hide!.wav

Peak level 97.4 %
Track quality 100.0 %
Test CRC 0457193E
Copy CRC 0457193E
Copy OK

No errors occurred

End of status report

foobar2000 1.2 / Dynamic Range Meter 1.1.1
log date: 2014-10-30 17:24:25

--------------------------------------------------------------------------------
Analyzed: John Carpenter / Big Trouble In Little China CD 1
--------------------------------------------------------------------------------

DR Peak RMS Duration Track
--------------------------------------------------------------------------------
DR9 -5.59 dB -17.17 dB 2:15 01-Prologue
DR14 0.00 dB -15.24 dB 4:05 02-Pork Chop Express (Main Title)
DR12 -0.73 dB -17.15 dB 4:20 03-Abduction At Airport
DR10 -5.78 dB -20.11 dB 1:14 04-The Alley (Procession)
DR11 -0.19 dB -14.77 dB 2:31 05-The Alley (War)
DR11 0.00 dB -16.53 dB 2:45 06-The Storms
DR12 -1.94 dB -19.34 dB 3:49 07-Tenement - White Tiger
DR11 -0.86 dB -15.60 dB 4:16 08-Here Come The Storms
DR11 -0.61 dB -16.98 dB 4:42 09-Wing Kong Exchange
DR11 -0.33 dB -20.83 dB 3:16 10-Lo Pan's Domain - Looking For A Girl
DR11 -0.14 dB -16.81 dB 7:20 11-Friends Of Yours? - Escape Iron Basis
DR11 -0.09 dB -15.46 dB 5:38 12-Escape From Wing Kong
DR11 -0.22 dB -13.91 dB 4:35 13-Hide
--------------------------------------------------------------------------------

Number of tracks: 13
Official DR value: DR11

Samplerate: 44100 Hz
Channels: 2
Bits per sample: 16
Bitrate: 708 kbps
Codec: FLAC
================================================================================


Exact Audio Copy V0.99 prebeta 4 from 23. January 2008

EAC extraction logfile from 3. March 2009, 17:46

John Carpenter / Alan Howarth / Big Trouble in Little China (Disc 2 of 2)

Used drive : TSSTcorpDVD-ROM TS-H352C Adapter: 1 ID: 1

Read mode : Secure
Utilize accurate stream : Yes
Defeat audio cache : Yes
Make use of C2 pointers : No

Read offset correction : 6
Overread into Lead-In and Lead-Out : No
Fill up missing offset samples with silence : Yes
Delete leading and trailing silent blocks : No
Null samples used in CRC calculations : Yes
Used interface : Installed external ASPI interface
Gap handling : Appended to previous track

Used output format : User Defined Encoder
Selected bitrate : 192 kBit/s
Quality : High
Add ID3 tag : No
Command line compressor : C:Program FilesFLACflac.exe
Additional command line options : -8 -A tukey(0.25) -A gauss(0.1875) -b 4096 -V -T "artist=%a" -T "title=%t" -T "album=%g" -T "date=%y" -T "tracknumber=%n" -T "genre=%m" %s --sector-align


TOC of the extracted CD

Track | Start | Length | Start sector | End sector
---------------------------------------------------------
1 | 0:00.00 | 7:31.49 | 0 | 33873
2 | 7:31.49 | 1:11.43 | 33874 | 39241
3 | 8:43.17 | 7:05.19 | 39242 | 71135
4 | 15:48.36 | 7:53.10 | 71136 | 106620
5 | 23:41.46 | 7:01.52 | 106621 | 138247
6 | 30:43.23 | 3:13.61 | 138248 | 152783
7 | 33:57.09 | 3:22.32 | 152784 | 167965
8 | 37:19.41 | 5:23.63 | 167966 | 192253
9 | 42:43.29 | 3:01.36 | 192254 | 205864


Track 1

Filename N:MusicBig Trouble In Little ChinaBig Trouble In Little China [FLAC]Disc 21 - Call the Police.wav

Pre-gap length 0:00:02.00

Peak level 93.8 %
Track quality 100.0 %
Test CRC 848569FF
Copy CRC 848569FF
Copy OK

Track 2

Filename N:MusicBig Trouble In Little ChinaBig Trouble In Little China [FLAC]Disc 22 - Dragon Eyes.wav

Pre-gap length 0:00:02.00

Peak level 96.9 %
Track quality 100.0 %
Test CRC BEC98E8F
Copy CRC BEC98E8F
Copy OK

Track 3

Filename N:MusicBig Trouble In Little ChinaBig Trouble In Little China [FLAC]Disc 23 - Into the Spirit Path.wav

Pre-gap length 0:00:02.00

Peak level 97.9 %
Track quality 100.0 %
Test CRC E67FD84B
Copy CRC E67FD84B
Copy OK

Track 4

Filename N:MusicBig Trouble In Little ChinaBig Trouble In Little China [FLAC]Disc 24 - The Great Arcade.wav

Pre-gap length 0:00:02.00

Peak level 99.1 %
Track quality 100.0 %
Test CRC DB7EB138
Copy CRC DB7EB138
Copy OK

Track 5

Filename N:MusicBig Trouble In Little ChinaBig Trouble In Little China [FLAC]Disc 25 - The Final Escape (Lo Pan's Demise-Getaway).wav

Pre-gap length 0:00:02.00

Peak level 98.8 %
Track quality 99.9 %
Test CRC 57A62EC2
Copy CRC 57A62EC2
Copy OK

Track 6

Filename N:MusicBig Trouble In Little ChinaBig Trouble In Little China [FLAC]Disc 26 - Goodbye, Jack.wav

Pre-gap length 0:00:04.00

Peak level 85.1 %
Track quality 100.0 %
Test CRC 093B4BBF
Copy CRC 093B4BBF
Copy OK

Track 7

Filename N:MusicBig Trouble In Little ChinaBig Trouble In Little China [FLAC]Disc 27 - Big Trouble in Little China (End Credits) [album version].wav

Peak level 100.0 %
Track quality 100.0 %
Test CRC AC7E8628
Copy CRC AC7E8628
Copy OK

Track 8

Filename N:MusicBig Trouble In Little ChinaBig Trouble In Little China [FLAC]Disc 28 - Stingers Montage.wav

Pre-gap length 0:00:08.00

Peak level 85.1 %
Track quality 100.0 %
Test CRC 6BCEBB1F
Copy CRC 6BCEBB1F
Copy OK

Track 9

Filename N:MusicBig Trouble In Little ChinaBig Trouble In Little China [FLAC]Disc 29 - Big Trouble in Little China [original version].wav

Pre-gap length 0:00:03.00

Peak level 100.0 %
Track quality 100.0 %
Test CRC 317768F5
Copy CRC 317768F5
Copy OK

No errors occurred

End of status report

foobar2000 1.2 / Dynamic Range Meter 1.1.1
log date: 2014-10-30 17:24:39

--------------------------------------------------------------------------------
Analyzed: John Carpenter / Big Trouble In Little China CD 2
--------------------------------------------------------------------------------

DR Peak RMS Duration Track
--------------------------------------------------------------------------------
DR13 -0.55 dB -18.25 dB 7:32 01-Call The Police
DR12 -0.27 dB -21.51 dB 1:12 02-Dragon Eyes
DR14 -0.18 dB -19.03 dB 7:05 03-Into The Spirit Path
DR13 -0.08 dB -15.96 dB 7:53 04-The Great Arcade
DR13 -0.10 dB -15.81 dB 7:02 05-The Final Escape (Lo Pan's Demise - Getaway)
DR13 -1.40 dB -23.44 dB 3:14 06-Goodbye Jack
DR12 0.00 dB -15.17 dB 3:22 07-Big Trouble In Little China (End Credits - Album Version) (Performed by The Coupe De Villes)
DR18 -1.40 dB -24.20 dB 5:24 08-Stingers Montage
DR11 0.00 dB -14.12 dB 3:01 09-Big Trouble In Little China (Original Version) (Performed by The Coupe De Villes)
--------------------------------------------------------------------------------

Number of tracks: 9
Official DR value: DR13

Samplerate: 44100 Hz
Channels: 2
Bits per sample: 16
Bitrate: 872 kbps
Codec: FLAC
================================================================================



All thanks to original releaser









Password: designol