Serie Anime Gintama Abspielen Abspielen 22 Min. | Japan | 2006 | FSK 12 Samurai Gintoki, Shinpachi und Kagura nehmen in ihrer "Alles-Agentur" jeden noch so gefährlichen Auftrag an.. Meine Liste | Britain's Got More Talent - Season 12 | Brent Miller

Вход в свой аккаунт

Или войдите через соц. сети

John Carpenter - The Fog: Original Film Soundtrack (1980) 2CD New Expanded Edition 2012


John Carpenter - The Fog: Original Film Soundtrack (1980) 2CD New Expanded Edition 2012
EAC | FLAC | Tracks (Cue&Log) ~ 513 Mb (incl 5%) | Mp3 (CBR320) ~ 302 Mb (incl 5%) | Scans included
Genre: Soundtrack, Score | Label: Silva Screen Records | # SILCD 1301 | Time: 01:50:00

“ John Carpenter s 1980 follow-up film to his smash hit Halloween featured ghost sailors terrorizing a Californian coastal community as a dense fog descends on their homes. The multi-talented filmmaker not only directed and wrote his films but also created his own unique brand of atmospheric synthesiser scores. This updated version of Silva Screen s long deleted and sought after 2000 reissue brings together not just the original album which featured 20 minutes of newly released music but a second 20 track disc of the entire score, drawn from the original tapes, remastered by long-time Carpenter collaborator Alan Howarth. ”


“ Ladies and gentlemen, this IS the release of the soundtrack to John Carpenter's "The Fog" that we have all been waiting for. In 2000 it was released on CD for the first time and I purchased it. As fantastic and atmospheric the music is, there quite a few cues that were in the film that were not on the soundtrack. Now, with this new expanded two disc set you get Disc 1 which is labeled the "2000 Remixed Soundtrack Album" and Disc 2 which is "The Original 1980 Score Cues" which has the missing cues not on the 2000 remixed album. In short, it was more than worth the price of "double dipping" to have this CD.

I am fond of John Carpenter's films and music. Yes, Halloween is great, Escape From New York is great and The Thing is just brilliant...however, The Fog ranks as my favorite John Carpenter film of all time (both the film and the soundtrack) and this is more than a worthy addition to anyone's CD soundtrack arsenal.

Review by C. Dunn, Amazon.com
”








Tracklist:

CD1 - The 2000 Remixed Soundtrack Album:

01. Prologue From The Fog (02:36)
02. Theme From The Fog (05:07)
03. Matthew Ghost Story (02:47)
04. Walk To The Lighthouse (02:37)
05. Rocks At Drake's Bay (02:22)
06. The Fog (03:14)
07. Antonio Bay (04:26)
08. Tommy Tells Of Ghost Ships (02:13)
09. Reel 9 (10:56)
10. Main Theme - Reprise (01:43)
11. The Fog Rolls In (02:46)
12. Blake In The Sanctuary (07:43)
13. Finale (01:18)
14. Radio Interview With Jamie Lee Curtis (06:06)

CD2 - The Original 1980 Score Cues:

01. Ghost Story (04:12)
02. The Journal (02:27)
03. Seagrass Attack (03:57)
04. Andy On The Beach (01:10)
05. Where's The Seagrass? (01:07)
06. Stevie's Lighthouse (01:28)
07. Something To Show You (02:27)
08. An Evil Plan (02:22)
09. Weatherman (03:30)
10. Walk To Lighthouse (02:47)
11. Dane (01:41)
12. Morgue (02:38)
13. The Fog Approaches (02:22)
14. Knock At The Door (02:14)
15. Fog Reflection (01:14)
16. Andy's In Trouble (02:51)
17. The Fog Enters Town (07:24)
18. Revenge (02:17)
19. Number 6 (02:41)
20. The Fog End Credits (03:01)


Exact Audio Copy V1.0 beta 3 from 29. August 2011

EAC extraction logfile from 6. November 2012, 2:36

John Carpenter / The Fog (2012 Expanded Edition CD 1)

Used drive : PLEXTOR CD-R PX-230A Adapter: 1 ID: 0

Read mode : Secure
Utilize accurate stream : Yes
Defeat audio cache : Yes
Make use of C2 pointers : No

Read offset correction : 738
Overread into Lead-In and Lead-Out : No
Fill up missing offset samples with silence : Yes
Delete leading and trailing silent blocks : No
Null samples used in CRC calculations : Yes
Used interface : Native Win32 interface for Win NT & 2000
Gap handling : Appended to previous track

Used output format : User Defined Encoder
Selected bitrate : 896 kBit/s
Quality : High
Add ID3 tag : No
Command line compressor : C:Program FilesExact Audio CopyFLACFLAC.EXE
Additional command line options : -6 -V -T "ARTIST=%artist%" -T "TITLE=%title%" -T "ALBUM=%albumtitle%" -T "DATE=%year%" -T "TRACKNUMBER=%tracknr%" -T "GENRE=%genre%" -T "COMMENT=%comment%" -T "ALBUMARTIST=%albuminterpret%" -T "COMPOSER=%composer%" -T "DISCNUMBER=%cdnumber%" -T "TOTALDISCS=%totalcds%" -T "TOTALTRACKS=%numtracks%" %source% -o %dest%


TOC of the extracted CD

Track | Start | Length | Start sector | End sector
---------------------------------------------------------
1 | 0:00.00 | 2:36.40 | 0 | 11739
2 | 2:36.40 | 5:07.18 | 11740 | 34782
3 | 7:43.58 | 2:47.14 | 34783 | 47321
4 | 10:30.72 | 2:37.19 | 47322 | 59115
5 | 13:08.16 | 2:22.74 | 59116 | 69839
6 | 15:31.15 | 3:14.11 | 69840 | 84400
7 | 18:45.26 | 4:26.33 | 84401 | 104383
8 | 23:11.59 | 2:13.60 | 104384 | 114418
9 | 25:25.44 | 10:56.43 | 114419 | 163661
10 | 36:22.12 | 1:43.50 | 163662 | 171436
11 | 38:05.62 | 2:46.68 | 171437 | 183954
12 | 40:52.55 | 7:43.09 | 183955 | 218688
13 | 48:35.64 | 1:18.49 | 218689 | 224587
14 | 49:54.38 | 6:06.26 | 224588 | 252063


Track 1

Filename C:Music1 - John Carpenter - Prologue From The Fog.wav

Pre-gap length 0:00:02.00

Peak level 89.7 %
Extraction speed 3.7 X
Track quality 100.0 %
Test CRC C89DA0F6
Copy CRC C89DA0F6
Track not present in AccurateRip database
Copy OK

Track 2

Filename C:Music2 - John Carpenter - Theme From The Fog.wav

Peak level 94.5 %
Extraction speed 3.7 X
Track quality 100.0 %
Test CRC 80155C4D
Copy CRC 80155C4D
Track not present in AccurateRip database
Copy OK

Track 3

Filename C:Music3 - John Carpenter - Matthew Ghost Story.wav

Peak level 53.0 %
Extraction speed 3.8 X
Track quality 100.0 %
Test CRC 4559BED9
Copy CRC 4559BED9
Track not present in AccurateRip database
Copy OK

Track 4

Filename C:Music4 - John Carpenter - Walk To The Lighthouse.wav

Peak level 24.5 %
Extraction speed 3.2 X
Track quality 100.0 %
Test CRC 52BB3D3B
Copy CRC 52BB3D3B
Track not present in AccurateRip database
Copy OK

Track 5

Filename C:Music5 - John Carpenter - Rocks At Drake's Bay.wav

Peak level 86.4 %
Extraction speed 3.5 X
Track quality 100.0 %
Test CRC E6C05149
Copy CRC E6C05149
Track not present in AccurateRip database
Copy OK

Track 6

Filename C:Music6 - John Carpenter - The Fog.wav

Peak level 91.6 %
Extraction speed 3.9 X
Track quality 100.0 %
Test CRC E30C7E77
Copy CRC E30C7E77
Track not present in AccurateRip database
Copy OK

Track 7

Filename C:Music7 - John Carpenter - Antonio Bay.wav

Peak level 96.4 %
Extraction speed 4.0 X
Track quality 100.0 %
Test CRC B2100446
Copy CRC B2100446
Track not present in AccurateRip database
Copy OK

Track 8

Filename C:Music8 - John Carpenter - Tommy Tells Of Ghost Ships.wav

Peak level 98.6 %
Extraction speed 4.2 X
Track quality 99.9 %
Test CRC 1F2E3ED8
Copy CRC 1F2E3ED8
Track not present in AccurateRip database
Copy OK

Track 9

Filename C:Music9 - John Carpenter - Reel 9.wav

Peak level 94.9 %
Extraction speed 4.1 X
Track quality 100.0 %
Test CRC 58082D29
Copy CRC 58082D29
Track not present in AccurateRip database
Copy OK

Track 10

Filename C:Music10 - John Carpenter - Main Theme - Reprise.wav

Peak level 61.5 %
Extraction speed 3.3 X
Track quality 100.0 %
Test CRC 2ED6D381
Copy CRC 2ED6D381
Track not present in AccurateRip database
Copy OK

Track 11

Filename C:Music11 - John Carpenter - The Fog Rolls In.wav

Peak level 91.0 %
Extraction speed 4.4 X
Track quality 100.0 %
Test CRC 0282FCA1
Copy CRC 0282FCA1
Track not present in AccurateRip database
Copy OK

Track 12

Filename C:Music12 - John Carpenter - Blake In The Sanctuary.wav

Peak level 88.0 %
Extraction speed 4.8 X
Track quality 99.9 %
Test CRC 159C0131
Copy CRC 159C0131
Track not present in AccurateRip database
Copy OK

Track 13

Filename C:Music13 - John Carpenter - Finale.wav

Peak level 35.9 %
Extraction speed 2.6 X
Track quality 99.8 %
Test CRC 6B1A2773
Copy CRC 6B1A2773
Track not present in AccurateRip database
Copy OK

Track 14

Filename C:Music14 - John Carpenter - Radio Interview With Jamie Lee Curtis.wav

Peak level 97.8 %
Extraction speed 3.8 X
Track quality 100.0 %
Test CRC 8427E465
Copy CRC 8427E465
Track not present in AccurateRip database
Copy OK


None of the tracks are present in the AccurateRip database

No errors occurred

End of status report

==== Log checksum A1F5DEEF40BCA164CBAD49FBF84CD2FB88114077106F75353BA715D76188DC58 ====

foobar2000 1.2 / Dynamic Range Meter 1.1.1
log date: 2014-10-27 15:13:28

--------------------------------------------------------------------------------
Analyzed: John Carpenter / The Fog (2012 Expanded Edition CD 1)
--------------------------------------------------------------------------------

DR Peak RMS Duration Track
--------------------------------------------------------------------------------
DR15 -0.94 dB -19.77 dB 2:37 01-Prologue From The Fog
DR10 -0.48 dB -12.86 dB 5:07 02-Theme From The Fog
DR9 -5.50 dB -18.62 dB 2:47 03-Matthew Ghost Story
DR10 -12.21 dB -24.87 dB 2:37 04-Walk To The Lighthouse
DR10 -1.26 dB -16.11 dB 2:23 05-Rocks At Drake's Bay
DR10 -0.76 dB -14.84 dB 3:14 06-The Fog
DR13 -0.31 dB -18.03 dB 4:26 07-Antonio Bay
DR12 -0.12 dB -16.58 dB 2:14 08-Tommy Tells Of Ghost Ships
DR12 -0.45 dB -16.16 dB 10:57 09-Reel 9
DR12 -4.21 dB -18.81 dB 1:44 10-Main Theme - Reprise
DR10 -0.81 dB -13.96 dB 2:47 11-The Fog Rolls In
DR13 -1.11 dB -17.02 dB 7:43 12-Blake In The Sanctuary
DR7 -8.89 dB -21.48 dB 1:19 13-Finale
DR15 -0.19 dB -19.28 dB 6:06 14-Radio Interview With Jamie Lee Curtis
--------------------------------------------------------------------------------

Number of tracks: 14
Official DR value: DR11

Samplerate: 44100 Hz
Channels: 2
Bits per sample: 16
Bitrate: 486 kbps
Codec: FLAC
================================================================================


Exact Audio Copy V1.0 beta 3 from 29. August 2011

EAC extraction logfile from 6. November 2012, 3:08

John Carpenter / The Fog (2012 Expanded Edition CD 2)

Used drive : PLEXTOR CD-R PX-230A Adapter: 1 ID: 0

Read mode : Secure
Utilize accurate stream : Yes
Defeat audio cache : Yes
Make use of C2 pointers : No

Read offset correction : 738
Overread into Lead-In and Lead-Out : No
Fill up missing offset samples with silence : Yes
Delete leading and trailing silent blocks : No
Null samples used in CRC calculations : Yes
Used interface : Native Win32 interface for Win NT & 2000
Gap handling : Appended to previous track

Used output format : User Defined Encoder
Selected bitrate : 896 kBit/s
Quality : High
Add ID3 tag : No
Command line compressor : C:Program FilesExact Audio CopyFLACFLAC.EXE
Additional command line options : -6 -V -T "ARTIST=%artist%" -T "TITLE=%title%" -T "ALBUM=%albumtitle%" -T "DATE=%year%" -T "TRACKNUMBER=%tracknr%" -T "GENRE=%genre%" -T "COMMENT=%comment%" -T "ALBUMARTIST=%albuminterpret%" -T "COMPOSER=%composer%" -T "DISCNUMBER=%cdnumber%" -T "TOTALDISCS=%totalcds%" -T "TOTALTRACKS=%numtracks%" %source% -o %dest%


TOC of the extracted CD

Track | Start | Length | Start sector | End sector
---------------------------------------------------------
1 | 0:00.00 | 4:12.21 | 0 | 18920
2 | 4:12.21 | 2:27.39 | 18921 | 29984
3 | 6:39.60 | 3:57.49 | 29985 | 47808
4 | 10:37.34 | 1:10.34 | 47809 | 53092
5 | 11:47.68 | 1:07.08 | 53093 | 58125
6 | 12:55.01 | 1:28.26 | 58126 | 64751
7 | 14:23.27 | 2:27.37 | 64752 | 75813
8 | 16:50.64 | 2:22.27 | 75814 | 86490
9 | 19:13.16 | 3:30.49 | 86491 | 102289
10 | 22:43.65 | 2:47.60 | 102290 | 114874
11 | 25:31.50 | 1:41.19 | 114875 | 122468
12 | 27:12.69 | 2:38.18 | 122469 | 134336
13 | 29:51.12 | 2:22.51 | 134337 | 145037
14 | 32:13.63 | 2:14.43 | 145038 | 155130
15 | 34:28.31 | 1:14.68 | 155131 | 160748
16 | 35:43.24 | 2:51.05 | 160749 | 173578
17 | 38:34.29 | 7:24.30 | 173579 | 206908
18 | 45:58.59 | 2:17.62 | 206909 | 217245
19 | 48:16.46 | 2:41.49 | 217246 | 229369
20 | 50:58.20 | 3:01.12 | 229370 | 242956


Track 1

Filename C:Music1 - John Carpenter - Ghost Story.wav

Pre-gap length 0:00:02.00

Peak level 75.3 %
Extraction speed 3.4 X
Track quality 100.0 %
Test CRC 65BF25C7
Copy CRC 65BF25C7
Track not present in AccurateRip database
Copy OK

Track 2

Filename C:Music2 - John Carpenter - The Journal.wav

Peak level 55.2 %
Extraction speed 3.4 X
Track quality 100.0 %
Test CRC 3ACE644E
Copy CRC 3ACE644E
Track not present in AccurateRip database
Copy OK

Track 3

Filename C:Music3 - John Carpenter - Seagrass Attack.wav

Peak level 93.9 %
Extraction speed 4.1 X
Track quality 100.0 %
Test CRC 68E556E1
Copy CRC 68E556E1
Track not present in AccurateRip database
Copy OK

Track 4

Filename C:Music4 - John Carpenter - Andy On The Beach.wav

Peak level 36.1 %
Extraction speed 3.9 X
Track quality 100.0 %
Test CRC E78C6CB8
Copy CRC E78C6CB8
Track not present in AccurateRip database
Copy OK

Track 5

Filename C:Music5 - John Carpenter - Where's The Seagrass.wav

Peak level 31.1 %
Extraction speed 4.4 X
Track quality 100.0 %
Test CRC 2EBE8DD7
Copy CRC 2EBE8DD7
Track not present in AccurateRip database
Copy OK

Track 6

Filename C:Music6 - John Carpenter - Stevie's Lighthouse.wav

Peak level 57.8 %
Extraction speed 4.0 X
Track quality 100.0 %
Test CRC 459264C1
Copy CRC 459264C1
Track not present in AccurateRip database
Copy OK

Track 7

Filename C:Music7 - John Carpenter - Something To Show You.wav

Peak level 63.1 %
Extraction speed 3.7 X
Track quality 100.0 %
Test CRC D082F3FC
Copy CRC D082F3FC
Track not present in AccurateRip database
Copy OK

Track 8

Filename C:Music8 - John Carpenter - An Evil Plan.wav

Peak level 61.3 %
Extraction speed 3.3 X
Track quality 100.0 %
Test CRC F1C5C24D
Copy CRC F1C5C24D
Track not present in AccurateRip database
Copy OK

Track 9

Filename C:Music9 - John Carpenter - Weatherman.wav

Peak level 97.6 %
Extraction speed 3.6 X
Track quality 100.0 %
Test CRC 3DF0675A
Copy CRC 3DF0675A
Track not present in AccurateRip database
Copy OK

Track 10

Filename C:Music10 - John Carpenter - Walk To Lighthouse.wav

Peak level 25.4 %
Extraction speed 4.5 X
Track quality 100.0 %
Test CRC 1D6EA034
Copy CRC 1D6EA034
Track not present in AccurateRip database
Copy OK

Track 11

Filename C:Music11 - John Carpenter - Dane.wav

Peak level 64.3 %
Extraction speed 2.7 X
Track quality 99.8 %
Test CRC 60C806BF
Copy CRC 60C806BF
Track not present in AccurateRip database
Copy OK

Track 12

Filename C:Music12 - John Carpenter - Morgue.wav

Peak level 88.4 %
Extraction speed 4.2 X
Track quality 100.0 %
Test CRC 509894E1
Copy CRC 509894E1
Track not present in AccurateRip database
Copy OK

Track 13

Filename C:Music13 - John Carpenter - The Fog Approaches.wav

Peak level 50.9 %
Extraction speed 4.5 X
Track quality 100.0 %
Test CRC 05881945
Copy CRC 05881945
Track not present in AccurateRip database
Copy OK

Track 14

Filename C:Music14 - John Carpenter - Knock At The Door.wav

Peak level 99.3 %
Extraction speed 4.3 X
Track quality 100.0 %
Test CRC 5C7E5FE2
Copy CRC 5C7E5FE2
Track not present in AccurateRip database
Copy OK

Track 15

Filename C:Music15 - John Carpenter - Fog Reflection.wav

Peak level 63.7 %
Extraction speed 3.3 X
Track quality 100.0 %
Test CRC 5D92E097
Copy CRC 5D92E097
Track not present in AccurateRip database
Copy OK

Track 16

Filename C:Music16 - John Carpenter - Andy's In Trouble.wav

Peak level 92.2 %
Extraction speed 3.9 X
Track quality 100.0 %
Test CRC 418143F9
Copy CRC 418143F9
Track not present in AccurateRip database
Copy OK

Track 17

Filename C:Music17 - John Carpenter - The Fog Enters Town.wav

Peak level 74.8 %
Extraction speed 4.0 X
Track quality 100.0 %
Test CRC E0064EBF
Copy CRC E0064EBF
Track not present in AccurateRip database
Copy OK

Track 18

Filename C:Music18 - John Carpenter - Revenge.wav

Peak level 70.7 %
Extraction speed 3.7 X
Track quality 100.0 %
Test CRC 48C5B6B9
Copy CRC 48C5B6B9
Track not present in AccurateRip database
Copy OK

Track 19

Filename C:Music19 - John Carpenter - Number 6.wav

Peak level 69.4 %
Extraction speed 3.6 X
Track quality 99.9 %
Test CRC 5A8D1C95
Copy CRC 5A8D1C95
Track not present in AccurateRip database
Copy OK

Track 20

Filename C:Music20 - John Carpenter - The Fog End Credits.wav

Peak level 65.3 %
Extraction speed 4.0 X
Track quality 100.0 %
Test CRC 4646EF49
Copy CRC 4646EF49
Track not present in AccurateRip database
Copy OK


None of the tracks are present in the AccurateRip database

No errors occurred

End of status report

==== Log checksum FEFE08C8EF06150F7E3E18182EA376B6D33DB66DBC7DFBB646E341110C4476AB ====

foobar2000 1.2 / Dynamic Range Meter 1.1.1
log date: 2014-10-27 15:13:44

--------------------------------------------------------------------------------
Analyzed: John Carpenter / The Fog (2012 Expanded Edition CD 2)
--------------------------------------------------------------------------------

DR Peak RMS Duration Track
--------------------------------------------------------------------------------
DR9 -2.46 dB -15.19 dB 4:12 01-Ghost Story
DR6 -5.16 dB -15.88 dB 2:28 02-The Journal
DR13 -0.54 dB -17.78 dB 3:58 03-Seagrass Attack
DR10 -8.84 dB -23.62 dB 1:10 04-Andy On The Beach
DR11 -10.13 dB -23.18 dB 1:07 05-Where's The Seagrass?
DR10 -4.75 dB -17.92 dB 1:28 06-Stevie's Lighthouse
DR6 -4.00 dB -14.35 dB 2:27 07-Something To Show You
DR10 -4.24 dB -17.57 dB 2:22 08-An Evil Plan
DR11 -0.20 dB -14.51 dB 3:31 09-Weatherman
DR9 -11.87 dB -22.13 dB 2:48 10-Walk To Lighthouse
DR10 -3.83 dB -17.86 dB 1:41 11-Dane
DR8 -1.07 dB -19.57 dB 2:38 12-Morgue
DR7 -5.85 dB -16.98 dB 2:23 13-The Fog Approaches
DR10 -0.05 dB -14.24 dB 2:15 14-Knock At The Door
DR11 -3.91 dB -19.66 dB 1:15 15-Fog Reflection
DR11 -0.70 dB -17.20 dB 2:51 16-Andy's In Trouble
DR12 -2.52 dB -16.90 dB 7:24 17-The Fog Enters Town
DR9 -3.00 dB -17.18 dB 2:18 18-Revenge
DR16 -3.16 dB -24.88 dB 2:42 19-Number 6
DR11 -3.70 dB -17.06 dB 3:01 20-The Fog End Credits
--------------------------------------------------------------------------------

Number of tracks: 20
Official DR value: DR10

Samplerate: 44100 Hz
Channels: 2
Bits per sample: 16
Bitrate: 614 kbps
Codec: FLAC
================================================================================



All thanks to original releaser - Filex777






Film at Avaxhome:


Password: designol