September 2016 | Regarder The Strangers: Prey at Night film entie | Lucha Underground

Вход в свой аккаунт

Или войдите через соц. сети

John Carpenter - Halloween: Original Motion Picture Soundtrack (1978) [20th Anniversary Edition 1998]


John Carpenter - Halloween: Original Motion Picture Soundtrack (1978) [20th Anniversary Edition 1998]
EAC | FLAC | Tracks (Cue&Log) ~ 283 Mb (incl 5%) | Mp3 (CBR320) ~ 134 Mb (incl 5%) | Scans included
Genre: Soundtrack, Score | Label: VarГЁse Sarabande | # VSD-5970 | Time: 00:51:43

“ Although this hit soundtrack was recorded with cheap '70s synthesizers, the simple scores composed by John Carpenter are acclaimed masterpieces. Carpenter sets the mood for his horrific movie with such tracks as "The Shape Stalks," "Laurie's Theme," and, of course, his main theme, which consists of the beating out of a 5-4 rhythm. A definite first pick for those interested, this soundtrack even bests most scary music albums.

Review by Barry Weber, Allmusic.com
”


“ For fans of the 1978 classic slasher film "Halloween", this 20th anniversary soundtrack is a must-have. When director John Carpenter set out to write his own music for the low budget horror flick, little did we know that he was about to bring us a stirring, gripping score, in the spirit of master suspense composer Bernard Herrmann, himself.

The story of "Halloween" is pretty familiar to most people, especially to those most likely to look into purchasing this soundtrack. Michael Myers was a young boy who brutally stabbed and murdered his sister back in 1963. He was taken to a mental hospital and was put under the care of Dr. Sam Loomis (the name being an homage to a character in Hitchcock's "Psycho"). In 1978, Michael Myers breaks free, returns to his hometown of Haddonfield, IL., and terrorizes a teenage babysitter named Laurie Strode. All of the frenzied, harrowing action takes place on Halloween night. The small town setting evokes the loneliness of Autuman well: leaves descend from their trees and blow through the streets, and jack-o-lanterns line the porches of the nice, quiet homes. Michael Myers shatters all of that serenity once night falls. The film is a suspenseful, pulse-pounding exercise in terror and fear. This is all enhanced greatly by its excellent score.

Director John Carpenter notes that he played the film, sans the music, for a movie executive, and she said that it wasn't scary. Months later, once she had seen it finished, with the ominous score composed and attached, her opinion changed completely. Carpenter, with just a few sparse notes, manages to interpose urgency, dread, fear, and evil presence, ever so exceptionally into the foreboding film. Visual and aural cues work brilliantly together to form a near-perfect blend of synchronous fright. Michael Myers turns the staircase, the music reflects it. He suddenly sits up, the music is right there. He is spotted across the street from Laurie Strode's school, the score hauntingly emanates. It is simple, but effective.

One should be aware of a couple of things about this this 20th anniversary soundtrack. It is 28 tracks long, and as the score is somewhat simple, there is a bit of repetition involved. Also, the dialogue for each score segment is included on this soundtrack. If you are wanting just the music, then this is not for you. Personally, I think the inclusion of the dialogue adds to the fun of the disc. As I said at the beginning of the review, this soundtrack is a must-have for the *fans* of the film. It is a good companion-piece to the movie. In fact, one could almost say that it *is* the movie. Few scores have been able to so definitively evoke the atmosphere of their films as well as "Halloween" has. Sit back, listen, and be scared.

Review by Matthew Gladney, Amazon.com
”









Tracklist:

01. Halloween Theme (02:23)
02. Halloween 1963 (03:13)
03. The Evil Is Gone! (04:08)
04. Halloween 1978 (02:50)
05. The Boogie Man Is Coming (00:40)
06. The Shape (01:42)
07. The Hedge (01:35)
08. He Came Home (02:40)
09. Trick Or Treat (00:38)
10. The Haunted House (01:44)
11. The Devil's Eyes (01:35)
12. The Boogie Man Is Outside (01:27)
13. Damn You For Letting Him Go! (01:34)
14. Empty Street (00:33)
15. See Anything You Like? (02:22)
16. Lock The Door (02:52)
17. He's Here? (00:55)
18. Light's Out (02:50)
19. Cut It Out (01:18)
20. Tombstone (01:09)
21. The Shape Stalks Laurie (01:33)
22. Turn Around (00:33)
23. Unlock The Door (02:09)
24. The Hanger (03:03)
25. Call The Police (00:25)
26. Last Assault (01:33)
27. Was It The Boogie Man? (00:32)
28. End Credits: Halloween Theme - Reprise (03:33)


Exact Audio Copy V0.99 prebeta 5 from 4. May 2009

EAC extraction logfile from 8. October 2010, 19:21

John Carpenter / Halloween: 20th Anniversary Edition

Used drive : ATAPI iHAS324 Y Adapter: 6 ID: 0

Read mode : Secure
Utilize accurate stream : Yes
Defeat audio cache : Yes
Make use of C2 pointers : No

Read offset correction : 48
Overread into Lead-In and Lead-Out : No
Fill up missing offset samples with silence : Yes
Delete leading and trailing silent blocks : No
Null samples used in CRC calculations : Yes
Used interface : Native Win32 interface for Win NT & 2000
Gap handling : Appended to previous track

Used output format : User Defined Encoder
Selected bitrate : 128 kBit/s
Quality : High
Add ID3 tag : No
Command line compressor : C:Program Files (x86)FLACflac.exe
Additional command line options : -V -8 -T "artist=%a" -T "title=%t" -T "album=%g" -T "date=%y" -T "tracknumber=%n" -T "genre=%m" %s


TOC of the extracted CD

Track | Start | Length | Start sector | End sector
---------------------------------------------------------
1 | 0:00.00 | 2:23.22 | 0 | 10746
2 | 2:23.22 | 3:13.13 | 10747 | 25234
3 | 5:36.35 | 4:08.57 | 25235 | 43891
4 | 9:45.17 | 2:50.58 | 43892 | 56699
5 | 12:36.00 | 0:40.64 | 56700 | 59763
6 | 13:16.64 | 1:42.63 | 59764 | 67476
7 | 14:59.52 | 1:35.63 | 67477 | 74664
8 | 16:35.40 | 2:40.20 | 74665 | 86684
9 | 19:15.60 | 0:38.32 | 86685 | 89566
10 | 19:54.17 | 1:44.20 | 89567 | 97386
11 | 21:38.37 | 1:35.33 | 97387 | 104544
12 | 23:13.70 | 1:27.52 | 104545 | 111121
13 | 24:41.47 | 1:34.43 | 111122 | 118214
14 | 26:16.15 | 0:33.07 | 118215 | 120696
15 | 26:49.22 | 2:22.55 | 120697 | 131401
16 | 29:12.02 | 2:52.30 | 131402 | 144331
17 | 32:04.32 | 0:55.45 | 144332 | 148501
18 | 33:00.02 | 2:50.35 | 148502 | 161286
19 | 35:50.37 | 1:18.03 | 161287 | 167139
20 | 37:08.40 | 1:09.62 | 167140 | 172376
21 | 38:18.27 | 1:33.48 | 172377 | 179399
22 | 39:52.00 | 0:33.60 | 179400 | 181934
23 | 40:25.60 | 2:09.07 | 181935 | 191616
24 | 42:34.67 | 3:03.70 | 191617 | 205411
25 | 45:38.62 | 0:25.65 | 205412 | 207351
26 | 46:04.52 | 1:33.57 | 207352 | 214383
27 | 47:38.34 | 0:32.16 | 214384 | 216799
28 | 48:10.50 | 3:33.17 | 216800 | 232791


Track 1

Filename D:Music MadnessSoundtracks1998 - Halloween 20th Anniversary Edition [FLAC]1 - Halloween Theme.wav

Pre-gap length 0:00:02.00

Peak level 53.6 %
Track quality 100.0 %
Test CRC D7401026
Copy CRC D7401026
Accurately ripped (confidence 14) [A6893E71]
Copy OK

Track 2

Filename D:Music MadnessSoundtracks1998 - Halloween 20th Anniversary Edition [FLAC]2 - Halloween 1963.wav

Peak level 90.1 %
Track quality 100.0 %
Test CRC 08F3DB2E
Copy CRC 08F3DB2E
Accurately ripped (confidence 14) [05D0C148]
Copy OK

Track 3

Filename D:Music MadnessSoundtracks1998 - Halloween 20th Anniversary Edition [FLAC]3 - The Evil Is Gone!.wav

Peak level 94.6 %
Track quality 100.0 %
Test CRC C139F37B
Copy CRC C139F37B
Accurately ripped (confidence 12) [D06EB035]
Copy OK

Track 4

Filename D:Music MadnessSoundtracks1998 - Halloween 20th Anniversary Edition [FLAC]4 - Halloween 1978.wav

Peak level 68.3 %
Track quality 100.0 %
Test CRC DF241FE1
Copy CRC DF241FE1
Accurately ripped (confidence 14) [088BD5FC]
Copy OK

Track 5

Filename D:Music MadnessSoundtracks1998 - Halloween 20th Anniversary Edition [FLAC]5 - The Boogie Man Is Coming.wav

Peak level 36.0 %
Track quality 99.7 %
Test CRC 725A1D5F
Copy CRC 725A1D5F
Accurately ripped (confidence 13) [69189955]
Copy OK

Track 6

Filename D:Music MadnessSoundtracks1998 - Halloween 20th Anniversary Edition [FLAC]6 - The Shape.wav

Peak level 66.9 %
Track quality 100.0 %
Test CRC AA4A0623
Copy CRC AA4A0623
Accurately ripped (confidence 14) [A7863979]
Copy OK

Track 7

Filename D:Music MadnessSoundtracks1998 - Halloween 20th Anniversary Edition [FLAC]7 - The Hedge.wav

Peak level 65.9 %
Track quality 100.0 %
Test CRC E4FC9439
Copy CRC E4FC9439
Accurately ripped (confidence 14) [B19FDEF3]
Copy OK

Track 8

Filename D:Music MadnessSoundtracks1998 - Halloween 20th Anniversary Edition [FLAC]8 - He Came Home.wav

Peak level 67.9 %
Track quality 100.0 %
Test CRC 20CA7A0B
Copy CRC 20CA7A0B
Accurately ripped (confidence 12) [9D1B76CB]
Copy OK

Track 9

Filename D:Music MadnessSoundtracks1998 - Halloween 20th Anniversary Edition [FLAC]9 - Trick Or Treat.wav

Peak level 43.1 %
Track quality 100.0 %
Test CRC 991D4F8E
Copy CRC 991D4F8E
Accurately ripped (confidence 13) [A03D9302]
Copy OK

Track 10

Filename D:Music MadnessSoundtracks1998 - Halloween 20th Anniversary Edition [FLAC]10 - The Haunted House.wav

Peak level 42.6 %
Track quality 99.8 %
Test CRC E72AAE54
Copy CRC E72AAE54
Accurately ripped (confidence 13) [87667E21]
Copy OK

Track 11

Filename D:Music MadnessSoundtracks1998 - Halloween 20th Anniversary Edition [FLAC]11 - The Devil's Eyes.wav

Peak level 94.3 %
Track quality 100.0 %
Test CRC BCC41A83
Copy CRC BCC41A83
Accurately ripped (confidence 13) [48FE7F60]
Copy OK

Track 12

Filename D:Music MadnessSoundtracks1998 - Halloween 20th Anniversary Edition [FLAC]12 - The Boogie Man Is Outside.wav

Peak level 40.3 %
Track quality 100.0 %
Test CRC 466C9B6F
Copy CRC 466C9B6F
Accurately ripped (confidence 13) [2E7F76AD]
Copy OK

Track 13

Filename D:Music MadnessSoundtracks1998 - Halloween 20th Anniversary Edition [FLAC]13 - Damn You For Letting Him Go!.wav

Peak level 31.5 %
Track quality 100.0 %
Test CRC 50ABC017
Copy CRC 50ABC017
Accurately ripped (confidence 13) [C7D7B267]
Copy OK

Track 14

Filename D:Music MadnessSoundtracks1998 - Halloween 20th Anniversary Edition [FLAC]14 - Empty Street.wav

Peak level 38.0 %
Track quality 100.0 %
Test CRC A49433EE
Copy CRC A49433EE
Accurately ripped (confidence 12) [58464F23]
Copy OK

Track 15

Filename D:Music MadnessSoundtracks1998 - Halloween 20th Anniversary Edition [FLAC]15 - See Anything You Like .wav

Peak level 98.6 %
Track quality 100.0 %
Test CRC 6492DD4F
Copy CRC 6492DD4F
Accurately ripped (confidence 13) [FBEF9664]
Copy OK

Track 16

Filename D:Music MadnessSoundtracks1998 - Halloween 20th Anniversary Edition [FLAC]16 - Lock The Door.wav

Peak level 39.4 %
Track quality 100.0 %
Test CRC B55D3CEC
Copy CRC B55D3CEC
Accurately ripped (confidence 13) [20DDE779]
Copy OK

Track 17

Filename D:Music MadnessSoundtracks1998 - Halloween 20th Anniversary Edition [FLAC]17 - He's Here .wav

Peak level 25.5 %
Track quality 100.0 %
Test CRC B2212471
Copy CRC B2212471
Accurately ripped (confidence 13) [A370DEF8]
Copy OK

Track 18

Filename D:Music MadnessSoundtracks1998 - Halloween 20th Anniversary Edition [FLAC]18 - Light's Out.wav

Peak level 68.0 %
Track quality 100.0 %
Test CRC 0784943C
Copy CRC 0784943C
Accurately ripped (confidence 13) [205086DD]
Copy OK

Track 19

Filename D:Music MadnessSoundtracks1998 - Halloween 20th Anniversary Edition [FLAC]19 - Cut It Out.wav

Peak level 45.9 %
Track quality 99.8 %
Test CRC 5C4BFEE6
Copy CRC 5C4BFEE6
Accurately ripped (confidence 13) [C14BC434]
Copy OK

Track 20

Filename D:Music MadnessSoundtracks1998 - Halloween 20th Anniversary Edition [FLAC]20 - Tombstone.wav

Peak level 93.5 %
Track quality 100.0 %
Test CRC 3205F93D
Copy CRC 3205F93D
Accurately ripped (confidence 13) [157017D4]
Copy OK

Track 21

Filename D:Music MadnessSoundtracks1998 - Halloween 20th Anniversary Edition [FLAC]21 - The Shape Stalks Laurie.wav

Peak level 67.4 %
Track quality 99.8 %
Test CRC EF4C2549
Copy CRC EF4C2549
Accurately ripped (confidence 13) [1B2005AF]
Copy OK

Track 22

Filename D:Music MadnessSoundtracks1998 - Halloween 20th Anniversary Edition [FLAC]22 - Turn Around.wav

Peak level 46.3 %
Track quality 100.0 %
Test CRC 2B7C5745
Copy CRC 2B7C5745
Accurately ripped (confidence 13) [45B0FBE8]
Copy OK

Track 23

Filename D:Music MadnessSoundtracks1998 - Halloween 20th Anniversary Edition [FLAC]23 - Unlock The Door.wav

Peak level 49.7 %
Track quality 100.0 %
Test CRC 949EE954
Copy CRC 949EE954
Accurately ripped (confidence 13) [D27D86C8]
Copy OK

Track 24

Filename D:Music MadnessSoundtracks1998 - Halloween 20th Anniversary Edition [FLAC]24 - The Hanger.wav

Peak level 79.9 %
Track quality 99.9 %
Test CRC C797A3F2
Copy CRC C797A3F2
Accurately ripped (confidence 13) [18179DE0]
Copy OK

Track 25

Filename D:Music MadnessSoundtracks1998 - Halloween 20th Anniversary Edition [FLAC]25 - Call The Police.wav

Peak level 21.4 %
Track quality 100.0 %
Test CRC 35C45E71
Copy CRC 35C45E71
Accurately ripped (confidence 13) [FFCB4A13]
Copy OK

Track 26

Filename D:Music MadnessSoundtracks1998 - Halloween 20th Anniversary Edition [FLAC]26 - Last Assault.wav

Peak level 72.3 %
Track quality 100.0 %
Test CRC 18B2B41C
Copy CRC 18B2B41C
Accurately ripped (confidence 13) [3FB3CCF0]
Copy OK

Track 27

Filename D:Music MadnessSoundtracks1998 - Halloween 20th Anniversary Edition [FLAC]27 - Was It The Boogie Man .wav

Peak level 63.9 %
Track quality 99.6 %
Test CRC 2134CCF5
Copy CRC 2134CCF5
Accurately ripped (confidence 13) [F89F3741]
Copy OK

Track 28

Filename D:Music MadnessSoundtracks1998 - Halloween 20th Anniversary Edition [FLAC]28 - End Credits- Halloween Theme - Reprise.wav

Peak level 70.9 %
Track quality 100.0 %
Test CRC 20AD0D1E
Copy CRC 20AD0D1E
Accurately ripped (confidence 14) [900F719B]
Copy OK


All tracks accurately ripped

No errors occurred

End of status report

foobar2000 1.2 / Dynamic Range Meter 1.1.1
log date: 2014-10-26 13:41:27

--------------------------------------------------------------------------------
Analyzed: John Carpenter / Halloween: 20th Anniversary Edition
--------------------------------------------------------------------------------

DR Peak RMS Duration Track
--------------------------------------------------------------------------------
DR10 -5.41 dB -18.50 dB 2:23 01-Halloween Theme
DR12 -0.90 dB -19.45 dB 3:13 02-Halloween 1963
DR14 -0.47 dB -20.61 dB 4:09 03-The Evil Is Gone!
DR13 -3.31 dB -19.93 dB 2:51 04-Halloween 1978
DR13 -8.87 dB -27.03 dB 0:41 05-The Boogie Man Is Coming
DR11 -3.48 dB -17.69 dB 1:43 06-The Shape
DR14 -3.62 dB -20.29 dB 1:36 07-The Hedge
DR11 -3.35 dB -19.88 dB 2:40 08-He Came Home
DR12 -7.30 dB -24.78 dB 0:38 09-Trick Or Treat
DR13 -7.39 dB -24.68 dB 1:44 10-The Haunted House
DR17 -0.51 dB -26.40 dB 1:35 11-The Devil's Eyes
DR13 -7.87 dB -24.80 dB 1:28 12-The Boogie Man Is Outside
DR17 -10.03 dB -31.29 dB 1:35 13-Damn You For Letting Him Go!
DR11 -8.40 dB -23.02 dB 0:33 14-Empty Street
DR16 -0.12 dB -22.76 dB 2:23 15-See Anything You Like?
DR14 -8.08 dB -25.37 dB 2:52 16-Lock The Door
DR11 -11.84 dB -25.19 dB 0:56 17-He's Here?
DR13 -3.34 dB -19.81 dB 2:50 18-Light's Out
DR16 -6.76 dB -26.50 dB 1:18 19-Cut It Out
DR13 -0.58 dB -19.32 dB 1:10 20-Tombstone
DR13 -3.42 dB -20.09 dB 1:34 21-The Shape Stalks Laurie
DR11 -6.68 dB -21.56 dB 0:34 22-Turn Around
DR12 -6.06 dB -20.95 dB 2:09 23-Unlock The Door
DR14 -1.95 dB -17.93 dB 3:04 24-The Hanger
DR14 -13.37 dB -34.31 dB 0:26 25-Call The Police
DR13 -2.81 dB -19.89 dB 1:34 26-Last Assault
DR11 -3.88 dB -22.14 dB 0:32 27-Was It The Boogie Man?
DR11 -2.98 dB -17.75 dB 3:33 28-End Credits: Halloween Theme - Reprise
--------------------------------------------------------------------------------

Number of tracks: 28
Official DR value: DR13

Samplerate: 44100 Hz
Channels: 2
Bits per sample: 16
Bitrate: 776 kbps
Codec: FLAC
================================================================================



All thanks to original releaser



Password: designol