Singapore | Sekirei S1 | 480p | BDRip | Dual Audio | 360 Total Security 9.2.0.1290

Вход в свой аккаунт

Или войдите через соц. сети

James Horner - House of Sand and Fog: Original Motion Picture Soundtrack (2003)


James Horner - House of Sand and Fog: Original Motion Picture Soundtrack (2003)
EAC | FLAC | Tracks (Cue&Log) ~ 317 Mb (incl 5%) | Scans included
Genre: Soundtrack, Score | Label: VarГЁse Sarabande | # VSD-6532 | Time: 01:09:46

“ A California real estate dispute may hardly seem the foundation for riveting drama, but in director Vadim Perelman's adaptation of Andre Dubus II's novel it becomes an unflinching, yet crucially non-judgmental study of disparate characters caught up in a spiraling conflict where home is considerably more than a place to live. Composer James Horner takes the medium-budget project as an opportunity to break with much of the melodic expectations of his Hollywood fare, coloring the film's more personally-scaled drama with an introspective score that turns on masterful musical evocations of mood and emotion. Horner begins with a deft electronic/orchestral synthesis ("An Older Life") that both recalls some of T-Dream's more evocative cinematic moments and subtly sets up the score's melancholy emotional tone. From there he relies heavily on autumnal, string writing (reminiscent of Copland and Barber) and spare piano flourishes, seasoned with inventive rhythmic touches, to carry its moody tone forward. While it may draw on some of the same minimalist and post-modern influences as A Beautiful Mind, it has a wholly different emotional cast; a dark, but deeply rewarding musical journey.

-- Jerry McCulley
”







Tracklist:

01. An Older Life (01:54)
02. The Waves of the Caspian Sea (04:00)
03. Old Photos, New Memories (03:23)
04. 'This Is No Longer Your House'' (03:34)
05. Two People (03:49)
06. Kathy's Night (02:18)
07. Parallel Lives, Parallel Loves (05:22)
08. Behrani's Thoughts, Long Ago (04:49)
09. Break-In (02:34)
10. The Dreams of Kings (06:58)
11. The Shooting, a Payment for Our Sins (15:18)
12. 'We Have Travelled So Far, It Is Time to Return to Our Path' (09:05)
13. A Return to the Caspian, and to the Iran of Old (06:37)


EAC extraction logfile from 13. October 2007, 22:01 for CD
James Horner / House of Sand and Fog

Used drive : HL-DT-STDVD-ROM GDR8163B Adapter: 0 ID: 0
Read mode : Secure with NO C2, accurate stream, disable cache
Read offset correction : 102
Overread into Lead-In and Lead-Out : No

Used output format : C:Archivos de programaFLACflac.exe (User Defined Encoder)
128 kBit/s
Additional command line options : -8 -V -T "ARTIST=%a" -T "TITLE=%t" -T "ALBUM=%g" -T "DATE=%y" -T "TRACKNUMBER=%n" -T "GENRE=%m" -T "COMMENT=EAC FLAC -8" %s

Other options :
Fill up missing offset samples with silence : Yes
Delete leading and trailing silent blocks : No
Native Win32 interface for Win NT & 2000


Track 1
Filename G:James Horner - House of Sand and Fog (2003) [FLAC]disc1 - An Older Life.wav

Pre-gap length 0:00:02.00

Peak level 98.7 %
Track quality 100.0 %
Test CRC 5B3BA6EB
Copy CRC 5B3BA6EB
Copy OK

Track 2
Filename G:James Horner - House of Sand and Fog (2003) [FLAC]disc2 - The Waves of the Caspian Sea.wav

Pre-gap length 0:00:00.01

Peak level 55.6 %
Track quality 100.0 %
Test CRC 3DAE1300
Copy CRC 3DAE1300
Copy OK

Track 3
Filename G:James Horner - House of Sand and Fog (2003) [FLAC]disc3 - Old Photos, New Memories.wav

Peak level 55.7 %
Track quality 100.0 %
Test CRC 51997BD5
Copy CRC 51997BD5
Copy OK

Track 4
Filename G:James Horner - House of Sand and Fog (2003) [FLAC]disc4 - 'This Is No Longer Your House''.wav

Peak level 83.5 %
Track quality 100.0 %
Test CRC 9AD4ECC8
Copy CRC 9AD4ECC8
Copy OK

Track 5
Filename G:James Horner - House of Sand and Fog (2003) [FLAC]disc5 - Two People.wav

Peak level 35.6 %
Track quality 99.9 %
Test CRC 49472C21
Copy CRC 49472C21
Copy OK

Track 6
Filename G:James Horner - House of Sand and Fog (2003) [FLAC]disc6 - Kathy's Night.wav

Peak level 46.3 %
Track quality 100.0 %
Test CRC 7F467618
Copy CRC 7F467618
Copy OK

Track 7
Filename G:James Horner - House of Sand and Fog (2003) [FLAC]disc7 - Parallel Lives, Parallel Loves.wav

Peak level 81.2 %
Track quality 100.0 %
Test CRC 8F9835D0
Copy CRC 8F9835D0
Copy OK

Track 8
Filename G:James Horner - House of Sand and Fog (2003) [FLAC]disc8 - Behrani's Thoughts, Long Ago.wav

Peak level 63.7 %
Track quality 100.0 %
Test CRC 868DCC97
Copy CRC 868DCC97
Copy OK

Track 9
Filename G:James Horner - House of Sand and Fog (2003) [FLAC]disc9 - Break-In.wav

Peak level 99.0 %
Track quality 100.0 %
Test CRC 270E838D
Copy CRC 270E838D
Copy OK

Track 10
Filename G:James Horner - House of Sand and Fog (2003) [FLAC]disc10 - The Dreams of Kings.wav

Peak level 98.7 %
Track quality 100.0 %
Test CRC 8BF83164
Copy CRC 8BF83164
Copy OK

Track 11
Filename G:James Horner - House of Sand and Fog (2003) [FLAC]disc11 - The Shooting, a Payment for Our Sins.wav

Peak level 98.3 %
Track quality 100.0 %
Test CRC BEA62263
Copy CRC BEA62263
Copy OK

Track 12
Filename G:James Horner - House of Sand and Fog (2003) [FLAC]disc12 - 'We Have Travelled So Far, It Is Time to Return to Our Path.''.wav

Peak level 98.7 %
Track quality 100.0 %
Test CRC 808FCFC7
Copy CRC 808FCFC7
Copy OK

Track 13
Filename G:James Horner - House of Sand and Fog (2003) [FLAC]disc13 - A Return to the Caspian, and to the Iran of Old.wav

Peak level 55.6 %
Track quality 100.0 %
Test CRC 64B7EB56
Copy CRC 64B7EB56
Copy OK

No errors occured


End of status report

foobar2000 1.2.1 / Dynamic Range Meter 1.1.1
log date: 2013-02-02 15:52:38

--------------------------------------------------------------------------------
Analyzed: James Horner / House of Sand and Fog
--------------------------------------------------------------------------------

DR Peak RMS Duration Track
--------------------------------------------------------------------------------
DR12 -0.11 dB -17.26 dB 1:55 01-An Older Life
DR12 -5.09 dB -21.54 dB 4:00 02-The Waves of the Caspian Sea
DR13 -5.08 dB -25.80 dB 3:24 03-Old Photos, New Memories
DR16 -1.56 dB -26.29 dB 3:35 04-'This Is No Longer Your House''
DR12 -8.96 dB -26.10 dB 3:49 05-Two People
DR12 -6.68 dB -26.42 dB 2:19 06-Kathy's Night
DR14 -1.80 dB -25.12 dB 5:22 07-Parallel Lives, Parallel Loves
DR16 -3.91 dB -25.40 dB 4:49 08-Behrani's Thoughts, Long Ago
DR10 -0.08 dB -14.63 dB 2:35 09-Break-In
DR14 -0.11 dB -20.90 dB 6:58 10-The Dreams of Kings
DR14 -0.15 dB -20.91 dB 15:18 11-The Shooting, a Payment for Our Sins
DR14 -0.11 dB -21.08 dB 9:05 12-'We Have Travelled So Far, It Is Time to Return to Our Path.''
DR13 -5.10 dB -22.59 dB 6:37 13-A Return to the Caspian, and to the Iran of Old
--------------------------------------------------------------------------------

Number of tracks: 13
Official DR value: DR13

Samplerate: 44100 Hz
Channels: 2
Bits per sample: 16
Bitrate: 618 kbps
Codec: FLAC
================================================================================



All thanks to original releaser





Password: designol