Emmas Chatroom | In The Air Tonight | ダウンロード XAPK

James Horner - Apollo 13: Music From The Motion Picture (1995)


James Horner - Apollo 13: Music From The Motion Picture (1995)
EAC | WV | Image (Cue&Log) ~ 400 Mb (incl 5%) | Scans included
Genre: Soundtrack, Score | Label: MCA Soundtracks | # MCD 11241 | Time: 01:12:12

The score to Apollo 13 was composed and conducted by James Horner. The soundtrack was released in 1995 by MCA Records and has seven tracks of score, eight period songs used in the film, and seven tracks of dialogue by the actors at a running time of nearly seventy-three minutes. The music also features solos by vocalist Annie Lennox and Tim Morrison on the trumpet. The score was a critical success and garnered Horner an Academy Award nomination for Best Original Score.






Tracklist:

01. Main Title (02:29)
02. One Small Step (Dialogue) (00:42)
03. Night Train (performed by James Brown) (03:27)
04. Groovin' (Performed by The Young Rascals) (02:26)
05. Somebody To Love (Performed by Jefferson Airplane) (02:54)
06. I Can See For Miles (Performed by The Who) (04:09)
07. Purple Haze (Performed by Jimi Hendrix) (02:45)
08. Launch Control (Dialogue) (00:31)
09. All Systems Go/The Launch (10:03)
10. Welcome To Apollo 13 (Dialogue) (00:26)
11. Spirit In The Sky (Performed by Norman Greenbaum) (03:50)
12. House Cleaning/Houston, We Have A Problem (Dialogue) (00:54)
13. Master Alarm (03:36)
14. What's Going On? (Dialogue) (00:50)
15. Into The LEM (04:18)
16. Out Of Time/Shut Her Down (Dialogue) (00:34)
17. Darkside Of The Moon (04:49)
18. Failure Is Not An Option (Dialogue) (00:22)
19. Honky Tonkin' (Performed by Hank Williams) (02:42)
20. Blue Moon (Performed by The Mavericks) (04:01)
21. Waiting For Disaster/A Privilege (Dialogue) (00:29)
22. Re-entry & Splashdown (08:52)
23. End Titles (06:59)


Exact Audio Copy V0.99 prebeta 5 from 4. May 2009

EAC extraction logfile from 13. January 2010, 21:01

James Horner / Apollo 13

Used drive : LITE-ON DVDRW SHW-1635S Adapter: 1 ID: 0

Read mode : Secure
Utilize accurate stream : Yes
Defeat audio cache : Yes
Make use of C2 pointers : No

Read offset correction : 6
Overread into Lead-In and Lead-Out : No
Fill up missing offset samples with silence : Yes
Delete leading and trailing silent blocks : No
Null samples used in CRC calculations : Yes
Used interface : Installed external ASPI interface

Used output format : Internal WAV Routines
Sample format : 44.100 Hz; 16 Bit; Stereo


TOC of the extracted CD

Track | Start | Length | Start sector | End sector
---------------------------------------------------------
1 | 0:00.32 | 2:29.60 | 32 | 11266
2 | 2:30.17 | 0:42.58 | 11267 | 14474
3 | 3:13.00 | 3:27.15 | 14475 | 30014
4 | 6:40.15 | 2:26.30 | 30015 | 40994
5 | 9:06.45 | 2:54.45 | 40995 | 54089
6 | 12:01.15 | 4:09.40 | 54090 | 72804
7 | 16:10.55 | 2:45.67 | 72805 | 85246
8 | 18:56.47 | 0:31.33 | 85247 | 87604
9 | 19:28.05 | 10:03.40 | 87605 | 132869
10 | 29:31.45 | 0:26.35 | 132870 | 134854
11 | 29:58.05 | 3:50.40 | 134855 | 152144
12 | 33:48.45 | 0:54.02 | 152145 | 156196
13 | 34:42.47 | 3:36.03 | 156197 | 172399
14 | 38:18.50 | 0:50.60 | 172400 | 176209
15 | 39:09.35 | 4:18.15 | 176210 | 195574
16 | 43:27.50 | 0:34.02 | 195575 | 198126
17 | 44:01.52 | 4:49.23 | 198127 | 219824
18 | 48:51.00 | 0:22.72 | 219825 | 221546
19 | 49:13.72 | 2:42.23 | 221547 | 233719
20 | 51:56.20 | 4:01.05 | 233720 | 251799
21 | 55:57.25 | 0:29.72 | 251800 | 254046
22 | 56:27.22 | 8:52.33 | 254047 | 293979
23 | 65:19.55 | 6:59.27 | 293980 | 325431


Range status and errors

Selected range

Filename E:James Horner - Apollo 13Apollo 13.wav

Peak level 100.0 %
Range quality 99.9 %
Test CRC 3CFCAE91
Copy CRC 3CFCAE91
Copy OK

No errors occurred

End of status report

foobar2000 1.2.1 / Dynamic Range Meter 1.1.1
log date: 2013-02-01 01:29:23

--------------------------------------------------------------------------------
Analyzed: James Horner & VA / Apollo 13
--------------------------------------------------------------------------------

DR Peak RMS Duration Track
--------------------------------------------------------------------------------
DR12 -5.03 dB -22.59 dB 2:30 01-Main Title
DR16 -8.74 dB -31.95 dB 0:43 02-One Small Step (Dialogue)
DR12 -8.63 dB -22.38 dB 3:27 03-Night Train (performed by James Brown)
DR11 -9.21 dB -22.52 dB 2:26 04-Groovin' (Performed by The Young Rascals)
DR10 -10.54 dB -22.54 dB 2:55 05-Somebody To Love (Performed by Jefferson Airplane)
DR11 -9.75 dB -23.52 dB 4:10 06-I Can See For Miles (Performed by The Who)
DR12 -8.54 dB -21.90 dB 2:46 07-Purple Haze (Performed by Jimi Hendrix)
DR13 -6.35 dB -22.78 dB 0:31 08-Launch Control (Dialogue)
DR15 -0.51 dB -20.31 dB 10:04 09-All Systems Go/The Launch
DR13 -10.64 dB -26.20 dB 0:26 10-Welcome To Apollo 13 (Dialogue)
DR12 -9.53 dB -23.60 dB 3:51 11-Spirit In The Sky (Performed by Norman Greenbaum)
DR11 0.00 dB -17.91 dB 0:54 12-House Cleaning/Houston, We Have A Problem (Dialogue)
DR13 -0.13 dB -17.49 dB 3:36 13-Master Alarm
DR13 -12.51 dB -30.83 dB 0:51 14-What's Going On? (Dialogue)
DR15 -0.22 dB -21.67 dB 4:18 15-Into The LEM
DR13 -12.00 dB -30.67 dB 0:34 16-Out Of Time/Shut Her Down (Dialogue)
DR15 -5.26 dB -28.70 dB 4:49 17-Darkside Of The Moon
DR14 -12.01 dB -29.03 dB 0:23 18-Failure Is Not An Option (Dialogue)
DR12 -9.57 dB -23.27 dB 2:42 19-Honky Tonkin' (Performed by Hank Williams)
DR11 -6.79 dB -21.38 dB 4:01 20-Blue Moon (Performed by The Mavericks)
DR15 -6.18 dB -30.87 dB 0:30 21-Waiting For Disaster/A Privilege (Dialogue)
DR15 0.00 dB -21.60 dB 8:52 22-Re-entry & Splashdown
DR15 -0.75 dB -20.60 dB 6:59 23-End Titles
--------------------------------------------------------------------------------

Number of tracks: 23
Official DR value: DR13

Samplerate: 44100 Hz
Channels: 2
Bits per sample: 16
Bitrate: 651 kbps
Codec: WavPack
================================================================================



All thanks to original releaser





Password: designol