Rie Tanaka | Elliott Gould | Baaghi 2 2018 HDRip 350Mb Full Hindi Movie Download 480p

Вход в свой аккаунт

Или войдите через соц. сети

Michael Nyman - The Piano: Original music from the film by Jane Campion (1993) Japanese Issue


Michael Nyman - The Piano: Original music from the film by Jane Campion (1993) Japanese Issue
EAC | FLAC | Image (Cue&Log) ~ 289 Mb (incl 5%) | Mp3 (CBR320/Stereo) ~ 138 Mb (incl 5%) | Scans ~ 282 Mb
Genre: Soundtrack, Score | Label: Virgin | # VJCP-25076 | Time: 00:57:25

“ Michael Nyman came of age as a classical composer in the radical London of the late '60s. His work embraces multiple vernaculars (jazz, avant garde, conceptual art) and helped cement the foundation of what came to be known as minimalism. Decades into his career, Nyman's score to Jane Campion's film The Piano made him a star. The movie's themes of colonialism and silence (its protagonist, portrayed by Holly Hunter, cannot speak) were perfectly aligned with his longtime interests in world and ambient music. Horn players assist members of the Munich Philharmonic Orchestra in fleshing out Nyman's stately, hymn-like motifs. On the more heavily orchestrated cues, sentimentality wins out over minimalist restraint; the best tracks feature Nyman on solo piano, playing the rudimentary, faux period repertoire of Hunter's character.

Review by Marc Weidenbaum
”






Tracklist:


01. To the Edge of the Earth (4:07)
02. Big My Secret (2:52)
03. A Wild and Distant Shore (5:52)
04. The Heart Asks Pleasure First (1:37)
05. Here to There (1:02)
06. The Promise (4:17)
07. A Bed of Ferns (0:48)
08. The Fling (1:30)
09. The Scent of Love (4:19)
10. Deep Into the Forrest (3:01)
11. The Mood That Passes Through You (1:14)
12. Lost and Found (2:27)
13. The Embrace (2:37)
14. Little Impulse (2:13)
15. The Sacrifice (2:50)
16. I Clipped Your Wing (4:37)
17. The Wounded (2:30)
18. All Imperfect Things (4:04)
19. Dreams of a Journey (5:30)


Exact Audio Copy V1.0 beta 3 from 29. August 2011

EAC extraction logfile from 7. October 2012, 17:27

Michael Nyman / The Piano - Original music from the film (VJCP-25076)

Used drive : HL-DT-STDVD+-RW GT60N Adapter: 0 ID: 1

Read mode : Secure
Utilize accurate stream : Yes
Defeat audio cache : Yes
Make use of C2 pointers : No

Read offset correction : 103
Overread into Lead-In and Lead-Out : No
Fill up missing offset samples with silence : Yes
Delete leading and trailing silent blocks : No
Null samples used in CRC calculations : Yes
Used interface : Native Win32 interface for Win NT & 2000

Used output format : User Defined Encoder
Selected bitrate : 128 kBit/s
Quality : High
Add ID3 tag : No
Command line compressor : C:Program Files (x86)Exact Audio CopyFlacflac.exe
Additional command line options : -V -8 -T "Genre=%genre%" -T "Artist=%artist%" -T "Title=%title%" -T "Album=%albumtitle%" -T "Date=%year%" -T "Tracknumber=%tracknr%" -T "Comment=%comment%" %source%


TOC of the extracted CD

Track | Start | Length | Start sector | End sector
---------------------------------------------------------
1 | 0:00.00 | 4:06.40 | 0 | 18489
2 | 4:06.40 | 2:52.30 | 18490 | 31419
3 | 6:58.70 | 5:52.25 | 31420 | 57844
4 | 12:51.20 | 1:36.40 | 57845 | 65084
5 | 14:27.60 | 1:02.27 | 65085 | 69761
6 | 15:30.12 | 4:16.55 | 69762 | 89016
7 | 19:46.67 | 0:47.68 | 89017 | 92609
8 | 20:34.60 | 1:29.42 | 92610 | 99326
9 | 22:04.27 | 4:19.05 | 99327 | 118756
10 | 26:23.32 | 3:01.00 | 118757 | 132331
11 | 29:24.32 | 1:13.65 | 132332 | 137871
12 | 30:38.22 | 2:26.65 | 137872 | 148886
13 | 33:05.12 | 2:37.00 | 148887 | 160661
14 | 35:42.12 | 2:12.55 | 160662 | 170616
15 | 37:54.67 | 2:50.20 | 170617 | 183386
16 | 40:45.12 | 4:36.60 | 183387 | 204146
17 | 45:21.72 | 2:29.63 | 204147 | 215384
18 | 47:51.60 | 4:03.62 | 215385 | 233671
19 | 51:55.47 | 5:30.18 | 233672 | 258439


Range status and errors

Selected range

Filename C:Michael Nyman - The Piano - Original music from the film (VJCP-25076).wav

Peak level 97.7 %
Extraction speed 4.5 X
Range quality 99.9 %
Test CRC 69437E59
Copy CRC 69437E59
Copy OK

No errors occurred


AccurateRip summary

Track 1 cannot be verified as accurate (confidence 7) [D90C5FC9], AccurateRip returned [A3608EBD] (AR v2)
Track 2 cannot be verified as accurate (confidence 7) [148B0A5C], AccurateRip returned [F6AE54DF] (AR v2)
Track 3 cannot be verified as accurate (confidence 7) [DBC95C26], AccurateRip returned [D3391870] (AR v2)
Track 4 cannot be verified as accurate (confidence 7) [F0FC2A6C], AccurateRip returned [3D6E9A30] (AR v2)
Track 5 cannot be verified as accurate (confidence 7) [BEEFAC6B], AccurateRip returned [4682F79F] (AR v2)
Track 6 cannot be verified as accurate (confidence 7) [49B73F25], AccurateRip returned [DB56460F] (AR v2)
Track 7 cannot be verified as accurate (confidence 7) [B09BCC58], AccurateRip returned [79AABF6D] (AR v2)
Track 8 cannot be verified as accurate (confidence 7) [1AF8C4CA], AccurateRip returned [901CDE30] (AR v2)
Track 9 cannot be verified as accurate (confidence 7) [9ADF5AB9], AccurateRip returned [2ABF4C1B] (AR v2)
Track 10 cannot be verified as accurate (confidence 7) [2B010B68], AccurateRip returned [4B8A554F] (AR v2)
Track 11 cannot be verified as accurate (confidence 7) [D0EBA88F], AccurateRip returned [1F940FD2] (AR v2)
Track 12 cannot be verified as accurate (confidence 7) [C6F353A3], AccurateRip returned [63E370BF] (AR v2)
Track 13 cannot be verified as accurate (confidence 7) [0E1DDB33], AccurateRip returned [44F7C06E] (AR v2)
Track 14 cannot be verified as accurate (confidence 7) [23E55E5E], AccurateRip returned [B1E1B28F] (AR v2)
Track 15 cannot be verified as accurate (confidence 7) [D6D6F64F], AccurateRip returned [F7CA2B04] (AR v2)
Track 16 cannot be verified as accurate (confidence 7) [7FB585D3], AccurateRip returned [0E24AAF4] (AR v2)
Track 17 cannot be verified as accurate (confidence 7) [423DF463], AccurateRip returned [C4B2CCC7] (AR v2)
Track 18 cannot be verified as accurate (confidence 7) [E71DF51E], AccurateRip returned [D530ABA0] (AR v2)
Track 19 cannot be verified as accurate (confidence 7) [D35A4C33], AccurateRip returned [973A66D2] (AR v2)

No tracks could be verified as accurate
You may have a different pressing from the one(s) in the database

End of status report

==== Log checksum 8FF8F894A769D5B9CF24A98D5C4241C8B637C15CDF3F843055594BB6B3D30E62 ====


All thanks to original releaser - Misantrop-P5





Password: designol