Microsoft Azure Networking Concepts | Dragon Lord | Guide Des Etudiants En Medecine Et En Pharmacie Et Des Eleves Herboristes Au Jardin Botanique de la Faculte de Lyon: Avec Un Plan Du Jardin (Classic Reprint)

Вход в свой аккаунт

Или войдите через соц. сети

Philip Glass - Visitors: Original Film Soundtrack (2013)


Philip Glass - Visitors: Original Film Soundtrack (2013)
EAC | FLAC | Image (Cue&Log) ~ 321 Mb (incl 5%) | Mp3 (CBR320) ~ 225 Mb (incl 5%) | Scans included
Genre: Soundtrack, Score | Label: Orange Mountain Music | # 0089 | Time: 01:17:52

“ Orange Mountain Music presents the original motion picture soundtrack to Visitors, the new film by acclaimed director Godfrey Reggio with an original score by Philip Glass performed by the Bruckner Orchester Linz conducted by Dennis Russell Davies. Glass and Reggio have a collaborative relationship dating back over thirty years including past collaborations on Koyaanisqatsi, Powaqqatsi and Naqoyqatsi. Visitors is Reggio's first film in over a decade and inspired an elegant evocative score from Glass. This recording was produced by long-time Glass collaborator Kurt Munkacsi. The film premiered at the Toronto International Film Festival in September of 2013. ”


“ The 2013 film Visitors reunited Philip Glass with the American experimental filmmaker Godfrey Reggio, the director of Koyaanisqatsi and several successor films that not only spawned some of Glass' most famous scores, but pushed his music in a new direction. The kinetic images of Koyaanisqatsi, symbolic of the out-of-control complexity of civilization, stimulated a new intensity in Glass' compositions, manifesting itself in a wider tonal palette and a new textural variety that soon spread itself across his more abstract output as well. Those looking for another installment in the Koyaanisqatsi series may be disappointed, for Reggio's film is quite different from its predecessors: in place of the speeded-up time-lapse photography of the earlier films is a series of just 74 long takes, many of them almost static. They show a gorilla, faces, the moon. Glass' response to this comes closer to his earlier minimalist style than most of his other scores from after the turn of the century. He boils the entire set of images down to six cuts, which moreover are cyclical: the final track repeats the opening material. The long open octave sonorities here may take listeners back to the pioneering works of the minimalist movement, and while the pace picks up after that, Glass moves more in the direction of amplifying space than exploring the quasi-tonal relationships that have characterized his later work. The music is dominated by the strings, and the little-known Bruckner Orchester Linz under Dennis Russell Davies does well with what must have been an unfamiliar sound for it; perhaps their Brucknerian background prepared them for the large arcs of Glass' orchestral music. Whether there is more to be found in the old language is a question for time to determine, but Glass buffs may well be intrigued by this new wrinkle in his oeuvre. As usual with the Glass-associated Orange Mountain Music label, you get little documentation but clear sonics.

Review by James Manheim, Allmusic.com
”









Tracklist:

01. Novus Ordo Seclorum (07:35)
02. The Day Room (15:59)
03. Off Planet, Part 1 (12:54)
04. Off Planet, Part 2 (18:14)
05. Gone (13:15)
06. The Reciprocal Gaze (09:53)


Exact Audio Copy V1.0 beta 1 from 15. November 2010

EAC extraction logfile from 20. December 2013, 21:03

Philip Glass / Visitors

Used drive : Optiarc DVD RW AD-7203A Adapter: 4 ID: 1

Read mode : Secure
Utilize accurate stream : Yes
Defeat audio cache : Yes
Make use of C2 pointers : No

Read offset correction : 48
Overread into Lead-In and Lead-Out : No
Fill up missing offset samples with silence : Yes
Delete leading and trailing silent blocks : No
Null samples used in CRC calculations : Yes
Used interface : Native Win32 interface for Win NT & 2000

Used output format : User Defined Encoder
Selected bitrate : 128 kBit/s
Quality : High
Add ID3 tag : No
Command line compressor : C:Program FilesFLACflac.exe
Additional command line options : -T "COMMENT=Ripped by GFox" -8 -V %s


TOC of the extracted CD

Track | Start | Length | Start sector | End sector
---------------------------------------------------------
1 | 0:00.00 | 7:35.16 | 0 | 34140
2 | 7:35.16 | 15:59.10 | 34141 | 106075
3 | 23:34.26 | 12:54.14 | 106076 | 164139
4 | 36:28.40 | 18:14.52 | 164140 | 246241
5 | 54:43.17 | 13:15.40 | 246242 | 305906
6 | 67:58.57 | 9:53.44 | 305907 | 350425


Range status and errors

Selected range

Filename D:EACPhilip Glass - Visitors.wav

Peak level 95.5 %
Extraction speed 0.4 X
Range quality 100.0 %
Test CRC DDF8C3B6
Copy CRC DDF8C3B6
Copy OK

No errors occurred


AccurateRip summary

Track 1 accurately ripped (confidence 1) [FFF8E8F3]
Track 2 accurately ripped (confidence 1) [30B98B28]
Track 3 accurately ripped (confidence 1) [D00F64CE]
Track 4 accurately ripped (confidence 1) [C4A211A4]
Track 5 accurately ripped (confidence 1) [1AF13860]
Track 6 accurately ripped (confidence 1) [5AF1AE32]

All tracks accurately ripped

End of status report

==== Log checksum F6885962D6A9426BE2592BC34DB4120709FB66968A42E430FAE5E72BAE467660 ====

foobar2000 1.2 / Dynamic Range Meter 1.1.1
log date: 2015-02-08 16:17:41

--------------------------------------------------------------------------------
Analyzed: Philip Glass / Visitors
--------------------------------------------------------------------------------

DR Peak RMS Duration Track
--------------------------------------------------------------------------------
DR14 -3.79 dB -21.12 dB 7:35 01-Novus Ordo Seclorum
DR14 -0.70 dB -21.66 dB 15:59 02-The Day Room
DR13 -7.77 dB -25.55 dB 12:54 03-Off Planet, Part 1
DR19 -0.40 dB -24.52 dB 18:15 04-Off Planet, Part 2
DR13 -10.21 dB -28.25 dB 13:16 05-Gone
DR15 -1.15 dB -23.47 dB 9:54 06-The Reciprocal Gaze
--------------------------------------------------------------------------------

Number of tracks: 6
Official DR value: DR15

Samplerate: 44100 Hz
Channels: 2
Bits per sample: 16
Bitrate: 485 kbps
Codec: FLAC
================================================================================



All thanks to original releaser - GFox







Password: designol