Watch Movie | Board Rules/Guide/Introduction: Find A Thread, Ask Movie Questions! | Season 4 Episode 2 Heavy Lies The Crown

Вход в свой аккаунт

Или войдите через соц. сети

Marvin Hamlisch - The Swimmer: Original Motion Picture Soundtrack (1968) [Silver Age Classics, 2006]


Marvin Hamlisch - The Swimmer: Original Motion Picture Soundtrack (1968) [Silver Age Classics, 2006]
EAC | FLAC | Image (Cue&Log) ~ 258 Mb (incl 5%) | Mp3 (CBR320) ~ 120 Mb (incl 5%) | Scans included
Genre: Soundtrack, Score | Label: Film Score Monthly | # FSM vol.9 no.5 | Time: 00:35:58

“ Marvin Hamlisch's first feature film score -- written while he was still a college student -- remains one of the great debuts in soundtrack history: a work of remarkable maturity, 1968's The Swimmer is rich in contrast and scope, communicating the film's uncommon emotional complexity in stunningly clear detail. Hamlisch proves a master of both style and mood, shifting effortlessly from the poignant simplicity of the main theme to the effervescent jazz cut "Easy Four/Bubbles" to the soaring orchestral flourishes of "Hurdles." Like the new generation of filmmakers who redefined American cinema in the late '60s and early '70s, Hamlisch achieves a note-perfect balance between tradition and innovation, acknowledging the past masters of movie music even as he expands the parameters of the form. Film Score Monthly's superlative reissue includes excellent liner notes and a series of stills from the film. Highly recommended.

Review by Jason Ankeny, Allmusic.com
”


“ Film Score Monthly:

FSM begins a relationship with Sony Music Special Products (home of the Columbia Records catalog) with an expanded CD release of one of the most haunting and unusual symphonic scores of the 1960s, The Swimmer (1968).

The Swimmer starred Burt Lancaster in one of his most challenging and definitive roles, as a narcissistic suburbanite who decides to "swim home" one day through the pools of his wealthy Connecticut neighbors. From this simple premise comes an intriguing and powerful character study, featuring a fine supporting cast and authentic locations, and a shocking twist. The film has endured as a cult favorite, oddly blending "new wave" film techniques with gritty realism.

The Swimmer was the first feature film score of then-24-year-old Marvin Hamlisch, who got the job after a chance meeting with producer Sam Spiegel. Hamlisch would go on to numerous successes in songwriting, film scoring and Broadway shows, with credits including The Sting, The Way We Were and The Spy Who Loved Me, and his strong gifts for melody and drama were evident for the start.

As Hamlisch had never scored a film, he enlisted the help of two veteran Hollywood orchestrators for technical assistance, Leo Shuken and Jack Hayes. Shuken and Hayes most notably orchestrated for Elmer Bernstein, and in their hands Hamlisch's rich themes for The Swimmer are executed with many of the lovely Americana orchestrations of Bernstein's work. The combination of Hamlisch's writing with Shuken and Hayes' orchestrations created a classic symphonic score that has been beloved by those who discovered it.

FSM's premiere CD release of The Swimmer features the complete score (expanded from the LP version, courtesy of Sony Pictures Entertainment) remixed and remastered from the original 1/2" three-track stereo masters. Liner notes are by album co-producer Jeff Bond.
”









Tracklist:

01. Theme From The Swimmer ('Send For Me In Summer') / Big Splash (03:23)
02. Easy Four / Bubbles (03:28)
03. The Dive / Don't Come Back / Slow Walk / The Horse (04:06)
04. Lucinda River / Two People (04:13)
05. Together / Hurdles (03:42)
06. Julie, Julie / The Little Flute / The Goodbye (01:26)
07. Carnival (02:30)
08. Lovely Hair (02:34)
09. Down The Steps / You Loved It / On The Road (03:07)
10. My Kids Love Me / Traveling Home / Closer To Home / Home / Marcia Funebre (06:07)
11. Theme From The Swimmer (Reprise) ('Send For Me In Summer') (01:16)


Exact Audio Copy V1.0 beta 3 from 29. August 2011

EAC extraction logfile from 2. April 2013, 23:55

Marvin Hamlisch / The Swimmer

Used drive : TSSTcorpCDDVDW SH-S202H Adapter: 0 ID: 0

Read mode : Secure
Utilize accurate stream : Yes
Defeat audio cache : Yes
Make use of C2 pointers : No

Read offset correction : 6
Overread into Lead-In and Lead-Out : No
Fill up missing offset samples with silence : Yes
Delete leading and trailing silent blocks : No
Null samples used in CRC calculations : Yes
Used interface : Native Win32 interface for Win NT & 2000

Used output format : Internal WAV Routines
Sample format : 44.100 Hz; 16 Bit; Stereo


TOC of the extracted CD

Track | Start | Length | Start sector | End sector
---------------------------------------------------------
1 | 0:00.00 | 3:23.50 | 0 | 15274
2 | 3:23.50 | 3:28.42 | 15275 | 30916
3 | 6:52.17 | 4:06.00 | 30917 | 49366
4 | 10:58.17 | 4:13.42 | 49367 | 68383
5 | 15:11.59 | 3:42.43 | 68384 | 85076
6 | 18:54.27 | 1:26.58 | 85077 | 91584
7 | 20:21.10 | 2:30.35 | 91585 | 102869
8 | 22:51.45 | 2:34.51 | 102870 | 114470
9 | 25:26.21 | 3:07.69 | 114471 | 128564
10 | 28:34.15 | 6:07.53 | 128565 | 156142
11 | 34:41.68 | 1:16.24 | 156143 | 161866


Range status and errors

Selected range

Filename D:Marvin Hamlisch - The SwimmerMarvin Hamlisch - The Swimmer.wav

Peak level 99.3 %
Extraction speed 2.9 X
Range quality 100.0 %
Test CRC 09291CE3
Copy CRC 09291CE3
Copy OK

No errors occurred


AccurateRip summary

Track 1 accurately ripped (confidence 2) [98D5BF69] (AR v2)
Track 2 accurately ripped (confidence 2) [EE4E1F88] (AR v2)
Track 3 accurately ripped (confidence 2) [05A38937] (AR v2)
Track 4 accurately ripped (confidence 2) [156DA2D5] (AR v2)
Track 5 accurately ripped (confidence 2) [4BB840CF] (AR v2)
Track 6 accurately ripped (confidence 2) [B8B7A841] (AR v2)
Track 7 accurately ripped (confidence 2) [BE7981D1] (AR v2)
Track 8 accurately ripped (confidence 2) [594EEBB9] (AR v2)
Track 9 accurately ripped (confidence 2) [FF0F90F8] (AR v2)
Track 10 accurately ripped (confidence 2) [16F2E491] (AR v2)
Track 11 accurately ripped (confidence 2) [1FFE3F8C] (AR v2)

All tracks accurately ripped

End of status report

==== Log checksum B1E10672EE57A21513F5A62899BEBBA6122031C27C06DDDEC89D8E4AE4859F13 ====

[CUETools log; Date: 06.02.2015 20:08:41; Version: 2.1.4]
[CTDB TOCID: I7bdH_rythShiJ99AgeUJERLWYw-] found.
Track | CTDB Status
1 | (1/1) Accurately ripped
2 | (1/1) Accurately ripped
3 | (1/1) Accurately ripped
4 | (1/1) Accurately ripped
5 | (1/1) Accurately ripped
6 | (1/1) Accurately ripped
7 | (1/1) Accurately ripped
8 | (1/1) Accurately ripped
9 | (1/1) Accurately ripped
10 | (1/1) Accurately ripped
11 | (1/1) Accurately ripped
[AccurateRip ID: 000f53e9-00836cd1-78086e0b] found.
Track [ CRC | V2 ] Status
01 [9de30053|98d5bf69] (0+5/5) Accurately ripped
02 [20f96371|ee4e1f88] (0+5/5) Accurately ripped
03 [f29eec9e|05a38937] (0+5/5) Accurately ripped
04 [43320093|156da2d5] (0+5/5) Accurately ripped
05 [24ab0d3b|4bb840cf] (0+5/5) Accurately ripped
06 [998374cb|b8b7a841] (0+5/5) Accurately ripped
07 [d7c4363a|be7981d1] (0+5/5) Accurately ripped
08 [8c6bc375|594eebb9] (0+5/5) Accurately ripped
09 [6c248aae|ff0f90f8] (0+5/5) Accurately ripped
10 [5d29f8bc|16f2e491] (0+5/5) Accurately ripped
11 [6b456e53|1ffe3f8c] (0+5/5) Accurately ripped

Track Peak [ CRC32 ] [W/O NULL] [ LOG ]
-- 99,3 [09291CE3] [1AEFE040] CRC32
01 98,1 [9EAF3C20] [5F255278]
02 79,4 [FA9BBDF3] [B8414513]
03 99,3 [88AEF26B] [9B1BC600]
04 72,3 [66A09B78] [DEA574AE]
05 88,7 [DA64C28D] [BEB1FC7E]
06 59,6 [3A46BC54] [BD2A925D]
07 84,9 [28B98435] [5BD1EF5E]
08 71,9 [0818F1B3] [5C8C2D0F]
09 93,8 [4196F203] [8452F213]
10 95,4 [7710E0C8] [A7565EA0]
11 98,0 [BBAC1596] [354BE564]

foobar2000 1.2 / Dynamic Range Meter 1.1.1
log date: 2015-02-06 20:16:01

--------------------------------------------------------------------------------
Analyzed: Marvin Hamlisch / The Swimmer
--------------------------------------------------------------------------------

DR Peak RMS Duration Track
--------------------------------------------------------------------------------
DR9 -0.16 dB -13.57 dB 3:24 01-Theme From The Swimmer ('Send For Me In Summer') / Big Splash
DR11 -2.00 dB -16.35 dB 3:29 02-Easy Four / Bubbles
DR9 -0.05 dB -13.01 dB 4:06 03-The Dive / Don't Come Back / Slow Walk / The Horse
DR10 -2.81 dB -17.27 dB 4:14 04-Lucinda River / Two People
DR9 -1.04 dB -11.53 dB 3:43 05-Together / Hurdles
DR11 -4.49 dB -21.21 dB 1:27 06-Julie, Julie / The Little Flute / The Goodbye
DR10 -1.42 dB -13.51 dB 2:30 07-Carnival
DR10 -2.86 dB -14.63 dB 2:35 08-Lovely Hair
DR9 -0.55 dB -13.86 dB 3:08 09-Down The Steps / You Loved It / On The Road
DR9 -0.40 dB -11.69 dB 6:08 10-My Kids Love Me / Traveling Home / Closer To Home / Home / Marcia Funebre
DR8 -0.17 dB -10.74 dB 1:16 11-Theme From The Swimmer (Reprise) ('Send For Me In Summer')
--------------------------------------------------------------------------------

Number of tracks: 11
Official DR value: DR9

Samplerate: 44100 Hz
Channels: 2
Bits per sample: 16
Bitrate: 829 kbps
Codec: FLAC
================================================================================



All thanks to original releaser - Composer's fan






Film at Avaxhome:




Password: designol