Rogue River 2012 BRRiP 720p x264 Kill-9 | ダウンロード APK | 2016 SBS Drama Awards

Joby Talbot & VA - The Hitchhiker's Guide To The Galaxy: Original Soundtrack (2005)


Joby Talbot & VA - The Hitchhiker's Guide To The Galaxy: Original Soundtrack (2005)
EAC | FLAC | Tracks (Cue&Log) ~ 366 Mb (incl 5%) | Mp3 (CBR320) ~ 179 Mb (incl 5%) | Scans included
Genre: Soundtrack, Score | Label: Hollywood Records | # 5050467-8315-2-0 | Time: 01:10:20

For sci-fi lovers the world over, Douglas Adams' The Hitchhiker's Guide to the Galaxy is sacred text, so it comes as no surprise that its arrival on celluloid has been met with considerably furrowed brows, especially in the wake of its author's death -- Adams suffered a fatal heart attack in 2001 in the midst of writing the screenplay. However, if the film's gloriously skewed and occasionally beautiful soundtrack is any indication, the Guide is in good hands. Director Garth Jennings tapped the considerable talents of award-winning U.K. composer/arranger and Divine Comedy member Jobi Talbot to swing the baton, and his reverence for the source material is evident from the very first note. Using Stephen Fry's wry summary of marine life's misunderstood intelligence to set the stage, Talbot unleashes -- along with a chorus that includes a bawdy choir, a little girl, and an opera singer -- "So Long & Thanks for All the Fish," a rousing, Broadway-style farewell to the planet (and its befuddled citizens) that's equal parts Rocky Horror and Monty Python. Mischief and Creativity are the muses here, as Talbot makes the "Destruction of Earth" sound both terrifying and irreverent -- it launches into the banjo-led "Journey of the Sorcerer" that sounds like an updated version of "Classical Gas" -- before introducing "The Hitchhiker's Guide to the Galaxy" in a swirl of electronic melodiousness. The retro-analog synth that fuels "Pan Galactic Gargle Blaster" and "Infinite Improbability Drive" -- both of which would have made excellent Stereolab titles -- is a nice touch, effectively relaying the bittersweet joy so inherent in Adams' prose, and the mariachi/exotica-tinged "Vitvodle Street Music" is Talbot's version of the Star Wars cantina band. The composer enlists his longtime collaborator and bandmate, Neil Hannon, to lend his Scott Walker-esque pipes to the "So Long & Thanks for the Fish" reprise, as well as the sly and infectious "Vote Beeblebrox," a timely satire concerning the reelection of "the President of the Galaxy" (voiced by a wonderfully disinterested Sam Rockwell). Talbot has created a world as strange and engaging as the story itself, and it translates because he's such an obvious fan. Like Adams, he knows that comedy is nothing without a perfect balance of heart and whimsy, and there is so much of each crammed into his Hitchhiker's Guide to the Galaxy that the listener is compelled to hang on every note in case something wonderful might happen.

Review by James Christopher Monger, Allmusic.com












Tracklist:

01. The Dolphins (01:00)
02. So Long & Thanks for All the Fish (02:26) performed by Hilary Summers, Kemi Ominiyi & The R'SVP Voices
03. Arthur Wakes Up (02:53)
04. Shoo-Rah! Shoo-Rah! (02:51) performed by Betty Wright
05. Here I Am (Come and Take Me) (04:13) performed by Al Green
06. Destruction of Earth (01:31)
07. Journey of the Sorcerer (01:15)
08. The Hitchhiker's Guide to the Galaxy (01:14)
09. Inside the Vogon Ship (02:46)
10. Vogon Poetry (00:48)
11. Space (01:00)
12. Vogon Command Centre (01:00)
13. Trillian & Arthur Reunited (01:45)
14. Pan Galactic Gargle Blaster (01:40)
15. Tea in Space (01:08)
16. Deep Thought (02:06)
17. Infinite Improbability Drive (00:55)
18. Viltvodle Street Music (00:44)
19. Huma's Hymn (01:01) performed by Gabriel Crough
20. Capture of Trillian (04:27)
21. Vogcity (01:02)
22. Love (01:44)
23. The Whale (01:53)
24. Planet Factory Floor (02:29)
25. Earth Mark II (06:29)
26. Magic Moments (02:37) performed by Perry Como
27. Shootout (03:23)
28. Finale (01:50)
29. Blast Off (00:16)
30. So Long & Thanks for All the Fish (Reprise) (02:54) performed by Neil Hannon
31. Careless Talk (01:42)
32. Vote Beeblebrox (03:27) performed by Neil Hannon, Douglas Payne, Andy Dunlop, Miggy Barradas, Chuck Norman, Hannah Thomas and Fran Balke
33. Reasons to Be Miserable (His Name is Marvin) (03:37) performed by Stephen Fry


Exact Audio Copy V0.99 prebeta 4 from 23. January 2008

EAC extraction logfile from 20. May 2009, 1:14

Joby Talbot / The Hitchhiker's Guide to the Galaxy Original Soundtrack

Used drive : Pioneer DVD-RW DVR-K17RS Adapter: 4 ID: 0

Read mode : Secure
Utilize accurate stream : Yes
Defeat audio cache : Yes
Make use of C2 pointers : No

Read offset correction : 48
Overread into Lead-In and Lead-Out : No
Fill up missing offset samples with silence : Yes
Delete leading and trailing silent blocks : No
Null samples used in CRC calculations : Yes
Used interface : Installed external ASPI interface
Gap handling : Appended to previous track

Used output format : Internal WAV Routines
Sample format : 44.100 Hz; 16 Bit; Stereo


TOC of the extracted CD

Track | Start | Length | Start sector | End sector
---------------------------------------------------------
1 | 0:00.00 | 1:00.39 | 0 | 4538
2 | 1:00.39 | 2:26.55 | 4539 | 15543
3 | 3:27.19 | 2:53.63 | 15544 | 28581
4 | 6:21.07 | 2:51.21 | 28582 | 41427
5 | 9:12.28 | 4:13.10 | 41428 | 60412
6 | 13:25.38 | 1:31.52 | 60413 | 67289
7 | 14:57.15 | 1:15.09 | 67290 | 72923
8 | 16:12.24 | 1:14.52 | 72924 | 78525
9 | 17:27.01 | 2:46.07 | 78526 | 90982
10 | 20:13.08 | 0:48.21 | 90983 | 94603
11 | 21:01.29 | 1:00.54 | 94604 | 99157
12 | 22:02.08 | 1:00.13 | 99158 | 103670
13 | 23:02.21 | 1:45.32 | 103671 | 111577
14 | 24:47.53 | 1:40.08 | 111578 | 119085
15 | 26:27.61 | 1:08.61 | 119086 | 124246
16 | 27:36.47 | 2:06.29 | 124247 | 133725
17 | 29:43.01 | 0:55.21 | 133726 | 137871
18 | 30:38.22 | 0:44.74 | 137872 | 141245
19 | 31:23.21 | 1:01.73 | 141246 | 145893
20 | 32:25.19 | 4:27.47 | 145894 | 165965
21 | 36:52.66 | 1:02.13 | 165966 | 170628
22 | 37:55.04 | 1:44.09 | 170629 | 178437
23 | 39:39.13 | 1:53.58 | 178438 | 186970
24 | 41:32.71 | 2:29.07 | 186971 | 198152
25 | 44:02.03 | 6:29.35 | 198153 | 227362
26 | 50:31.38 | 2:37.43 | 227363 | 239180
27 | 53:09.06 | 3:23.27 | 239181 | 254432
28 | 56:32.33 | 1:50.33 | 254433 | 262715
29 | 58:22.66 | 0:16.06 | 262716 | 263921
30 | 58:38.72 | 2:54.30 | 263922 | 277001
31 | 61:33.27 | 1:42.30 | 277002 | 284681
32 | 63:15.57 | 3:27.13 | 284682 | 300219
33 | 66:42.70 | 3:37.25 | 300220 | 316519


Track 1

Filename D:MusicEAC1 - The Dolphins.wav

Pre-gap length 0:00:02.00

Peak level 36.8 %
Track quality 100.0 %
Test CRC CCBDA873
Copy CRC CCBDA873
Copy OK

Track 2

Filename D:MusicEAC2 - Hilary Summers, Kemi Ominiyi & R'SVP Voices - So Long & Thanks for all the Fish.wav

Peak level 98.8 %
Track quality 100.0 %
Test CRC 65BF3360
Copy CRC 65BF3360
Copy OK

Track 3

Filename D:MusicEAC3 - Arthur Wakes Up.wav

Peak level 98.8 %
Track quality 100.0 %
Test CRC 81147AC0
Copy CRC 81147AC0
Copy OK

Track 4

Filename D:MusicEAC4 - Shoo-Rah! Shoo-Rah!.wav

Peak level 88.8 %
Track quality 100.0 %
Test CRC DBAF4A97
Copy CRC DBAF4A97
Copy OK

Track 5

Filename D:MusicEAC5 - Here I Am (Come And Take Me).wav

Peak level 70.5 %
Track quality 100.0 %
Test CRC 753A6B3B
Copy CRC 753A6B3B
Copy OK

Track 6

Filename D:MusicEAC6 - Destruction Of Earth.wav

Peak level 98.8 %
Track quality 100.0 %
Test CRC 0CF66FBC
Copy CRC 0CF66FBC
Copy OK

Track 7

Filename D:MusicEAC7 - Journey of the Sorcerer.wav

Peak level 98.8 %
Track quality 100.0 %
Test CRC 2B03AD9A
Copy CRC 2B03AD9A
Copy OK

Track 8

Filename D:MusicEAC8 - The Hitchhiker's Guide to the Galaxy.wav

Peak level 53.4 %
Track quality 99.8 %
Test CRC 5B298F3C
Copy CRC 5B298F3C
Copy OK

Track 9

Filename D:MusicEAC9 - Inside the Vogon Ship.wav

Peak level 98.8 %
Track quality 100.0 %
Test CRC 124AE1B3
Copy CRC 124AE1B3
Copy OK

Track 10

Filename D:MusicEAC10 - Vogon Poetry.wav

Peak level 51.6 %
Track quality 100.0 %
Test CRC F11B0340
Copy CRC F11B0340
Copy OK

Track 11

Filename D:MusicEAC11 - Space.wav

Peak level 78.5 %
Track quality 100.0 %
Test CRC 3672D909
Copy CRC 3672D909
Copy OK

Track 12

Filename D:MusicEAC12 - Vogon Command Centre.wav

Peak level 98.8 %
Track quality 100.0 %
Test CRC D2F35783
Copy CRC D2F35783
Copy OK

Track 13

Filename D:MusicEAC13 - Trillian and Arthur Reunited.wav

Peak level 98.8 %
Track quality 100.0 %
Test CRC 6F6310B7
Copy CRC 6F6310B7
Copy OK

Track 14

Filename D:MusicEAC14 - Pan Galactic Gargle Blaster.wav

Peak level 60.4 %
Track quality 100.0 %
Test CRC 04C87152
Copy CRC 04C87152
Copy OK

Track 15

Filename D:MusicEAC15 - Tea in Space.wav

Peak level 37.1 %
Track quality 100.0 %
Test CRC 4D936D1A
Copy CRC 4D936D1A
Copy OK

Track 16

Filename D:MusicEAC16 - Deep Thought.wav

Peak level 98.8 %
Track quality 100.0 %
Test CRC 5BED76F5
Copy CRC 5BED76F5
Copy OK

Track 17

Filename D:MusicEAC17 - Infinite Improbability Drive.wav

Peak level 37.0 %
Track quality 100.0 %
Test CRC ED98F267
Copy CRC ED98F267
Copy OK

Track 18

Filename D:MusicEAC18 - Viltvodle Street Music.wav

Peak level 87.9 %
Track quality 100.0 %
Test CRC FFB36E98
Copy CRC FFB36E98
Copy OK

Track 19

Filename D:MusicEAC19 - Gabriel Crouch - Huma's Hymn.wav

Peak level 97.4 %
Track quality 100.0 %
Test CRC 17DB1F9C
Copy CRC 17DB1F9C
Copy OK

Track 20

Filename D:MusicEAC20 - Capture of Trillian.wav

Peak level 98.8 %
Track quality 99.9 %
Test CRC 04DD1CFD
Copy CRC 04DD1CFD
Copy OK

Track 21

Filename D:MusicEAC21 - Vogcity.wav

Peak level 98.8 %
Track quality 100.0 %
Test CRC A4D3C26A
Copy CRC A4D3C26A
Copy OK

Track 22

Filename D:MusicEAC22 - Love.wav

Peak level 36.2 %
Track quality 100.0 %
Test CRC AFE3A19D
Copy CRC AFE3A19D
Copy OK

Track 23

Filename D:MusicEAC23 - The Whale.wav

Peak level 82.4 %
Track quality 100.0 %
Test CRC 7C5A6DBE
Copy CRC 7C5A6DBE
Copy OK

Track 24

Filename D:MusicEAC24 - Planet Factory Floor.wav

Peak level 98.8 %
Track quality 99.9 %
Test CRC B30A03F7
Copy CRC B30A03F7
Copy OK

Track 25

Filename D:MusicEAC25 - Earth Mark II.wav

Peak level 98.8 %
Track quality 100.0 %
Test CRC B07D9465
Copy CRC B07D9465
Copy OK

Track 26

Filename D:MusicEAC26 - Perry Como - Magic Moments.wav

Peak level 60.2 %
Track quality 100.0 %
Test CRC 6F451AE4
Copy CRC 6F451AE4
Copy OK

Track 27

Filename D:MusicEAC27 - Shootout.wav

Peak level 98.8 %
Track quality 100.0 %
Test CRC C789672D
Copy CRC C789672D
Copy OK

Track 28

Filename D:MusicEAC28 - Finale.wav

Peak level 98.8 %
Track quality 100.0 %
Test CRC E6BB45E2
Copy CRC E6BB45E2
Copy OK

Track 29

Filename D:MusicEAC29 - Blast Off.wav

Peak level 98.8 %
Track quality 100.0 %
Test CRC 2CB84451
Copy CRC 2CB84451
Copy OK

Track 30

Filename D:MusicEAC30 - Neil Hannon - So Long & Thanks for all the Fish (Reprise).wav

Peak level 98.8 %
Track quality 100.0 %
Test CRC 3B16B2AD
Copy CRC 3B16B2AD
Copy OK

Track 31

Filename D:MusicEAC31 - Careless Talk.wav

Peak level 50.9 %
Track quality 100.0 %
Test CRC 8000B9A7
Copy CRC 8000B9A7
Copy OK

Track 32

Filename D:MusicEAC32 - N. Hannon, D. Payne, A. Dunlop, M. Baradas, C. Norman, H. Thomas, F. Balke - Vote Beeblebrox.wav

Peak level 98.4 %
Track quality 100.0 %
Test CRC A983C9A8
Copy CRC A983C9A8
Copy OK

Track 33

Filename D:MusicEAC33 - Stephen Fry - Reasons to be Miserable (His Name is Marvin).wav

Peak level 100.0 %
Track quality 100.0 %
Test CRC 30EABE5B
Copy CRC 30EABE5B
Copy OK

No errors occurred

End of status report

[CUETools log; Date: 28.01.2015 17:56:09; Version: 2.1.4]
[CTDB TOCID: 0a2SSaCNZIjKgKVvLel7eCy8DH8-] found.
Track | CTDB Status
1 | (10/10) Accurately ripped
2 | (10/10) Accurately ripped
3 | (10/10) Accurately ripped
4 | (10/10) Accurately ripped
5 | (10/10) Accurately ripped
6 | (10/10) Accurately ripped
7 | ( 9/10) Accurately ripped
8 | (10/10) Accurately ripped
9 | ( 9/10) Accurately ripped
10 | (10/10) Accurately ripped
11 | (10/10) Accurately ripped
12 | (10/10) Accurately ripped
13 | (10/10) Accurately ripped
14 | (10/10) Accurately ripped
15 | (10/10) Accurately ripped
16 | (10/10) Accurately ripped
17 | (10/10) Accurately ripped
18 | (10/10) Accurately ripped
19 | (10/10) Accurately ripped
20 | (10/10) Accurately ripped
21 | (10/10) Accurately ripped
22 | (10/10) Accurately ripped
23 | (10/10) Accurately ripped
24 | (10/10) Accurately ripped
25 | (10/10) Accurately ripped
26 | (10/10) Accurately ripped
27 | (10/10) Accurately ripped
28 | (10/10) Accurately ripped
29 | (10/10) Accurately ripped
30 | (10/10) Accurately ripped
31 | (10/10) Accurately ripped
32 | ( 9/10) Accurately ripped
33 | ( 9/10) Accurately ripped
[AccurateRip ID: 004c4183-06f72ba2-00107c21] found.
Track [ CRC | V2 ] Status
01 [7f949fa4|bccb1d63] (17+11/30) Accurately ripped
02 [de1c0d42|5320d5b5] (18+11/31) Accurately ripped
03 [924ec8fc|68568e2c] (18+11/31) Accurately ripped
04 [15a49a6f|3273be49] (17+11/31) Accurately ripped
05 [2eae62a1|741585e0] (17+11/31) Accurately ripped
06 [3d6a38bb|0605acb6] (18+11/31) Accurately ripped
07 [126e69b5|4b4524a8] (18+11/31) Accurately ripped
08 [d920dcae|49377e98] (18+11/31) Accurately ripped
09 [24d4f24c|3edc7ff2] (18+11/31) Accurately ripped
10 [c0cdf36a|8351d45f] (18+11/31) Accurately ripped
11 [d880b1e6|d84fd815] (18+11/31) Accurately ripped
12 [202dcb84|fd73ed12] (18+11/31) Accurately ripped
13 [59ac9781|4db1ae1a] (18+11/31) Accurately ripped
14 [1b684c06|0a927a2b] (18+11/31) Accurately ripped
15 [50e43fb9|d330ff94] (18+11/31) Accurately ripped
16 [459d82a8|6028bfc0] (18+11/31) Accurately ripped
17 [7e525bdb|c85f60e8] (18+11/31) Accurately ripped
18 [9490f3ef|2e0ee9ec] (18+11/31) Accurately ripped
19 [ba96565b|fa99552f] (18+11/31) Accurately ripped
20 [b39cb55a|989e08bf] (18+11/31) Accurately ripped
21 [0aedb475|c6d8675d] (18+11/31) Accurately ripped
22 [0247495d|806b1cac] (18+11/31) Accurately ripped
23 [26889597|9b17c21f] (18+11/31) Accurately ripped
24 [fd16dad1|e6c6de0a] (18+11/31) Accurately ripped
25 [ac0df607|24a55989] (18+11/31) Accurately ripped
26 [155ad42a|dcd9109a] (17+11/30) Accurately ripped
27 [f4340649|fef8147b] (18+11/31) Accurately ripped
28 [89a2f7c4|a2587c2c] (18+11/31) Accurately ripped
29 [dc08c024|02a563f5] (18+11/31) Accurately ripped
30 [a8b94ccc|4e8731de] (18+11/32) Accurately ripped
31 [3f88bb92|cf67a0fc] (18+11/31) Accurately ripped
32 [2b977dea|7899b7cb] (18+11/31) Accurately ripped
33 [8a533382|9a8c6ac8] (16+11/29) Accurately ripped
Offsetted by -12:
01 [62a15230] (02/30) Accurately ripped
02 [5173c7d0] (02/31) Accurately ripped
03 [cec676c8] (02/31) Accurately ripped
04 [6f202ad5] (03/31) Accurately ripped
05 [179eb3d5] (03/31) Accurately ripped
06 [ccc50ff5] (02/31) Accurately ripped
07 [9e1ee3c5] (02/31) Accurately ripped
08 [33bfc3e6] (02/31) Accurately ripped
09 [064bd84e] (02/31) Accurately ripped
10 [cf72be66] (02/31) Accurately ripped
11 [18078b57] (02/31) Accurately ripped
12 [c6c63d70] (02/31) Accurately ripped
13 [71049015] (02/31) Accurately ripped
14 [ebddfd03] (02/31) Accurately ripped
15 [30dce2fa] (02/31) Accurately ripped
16 [9531311c] (02/31) Accurately ripped
17 [4a86d8ee] (02/31) Accurately ripped
18 [a687c4b8] (02/31) Accurately ripped
19 [838e05d4] (02/31) Accurately ripped
20 [d2dbc557] (02/31) Accurately ripped
21 [d923c6b8] (02/31) Accurately ripped
22 [191e926a] (02/31) Accurately ripped
23 [b5697ba9] (02/31) Accurately ripped
24 [99637dde] (02/31) Accurately ripped
25 [99e5c4b6] (02/31) Accurately ripped
26 [131e0f96] (02/30) Accurately ripped
27 [9e2bf8ad] (02/31) Accurately ripped
28 [a36c77e1] (02/31) Accurately ripped
29 [5a527176] (02/31) Accurately ripped
30 [8868984d] (03/32) Accurately ripped
31 [054ca791] (02/31) Accurately ripped
32 [240776a0] (02/31) Accurately ripped
33 [1e8de0bd] (02/29) Accurately ripped

Track Peak [ CRC32 ] [W/O NULL] [ LOG ]
-- 100,0 [E11F0C9C] [E63DE460]
01 36,8 [CCBDA873] [D16BA897] CRC32
02 98,8 [65BF3360] [96CC8236] CRC32
03 98,8 [81147AC0] [7C5D7288] CRC32
04 88,8 [DBAF4A97] [337069D1] CRC32
05 70,5 [753A6B3B] [41940DA4] CRC32
06 98,8 [0CF66FBC] [BDF5BAAE] CRC32
07 98,8 [2B03AD9A] [B07D6DBA] CRC32
08 53,4 [5B298F3C] [4A21BB81] CRC32
09 98,8 [124AE1B3] [3E83D349] CRC32
10 51,6 [F11B0340] [8CAD44FC] CRC32
11 78,5 [3672D909] [18E53CD7] CRC32
12 98,8 [D2F35783] [A20B7267] CRC32
13 98,8 [6F6310B7] [56388A67] CRC32
14 60,4 [04C87152] [F3387186] CRC32
15 37,1 [4D936D1A] [18422F83] CRC32
16 98,8 [5BED76F5] [5E5D1839] CRC32
17 37,0 [ED98F267] [A1997E22] CRC32
18 87,9 [FFB36E98] [A65155D7] CRC32
19 97,4 [17DB1F9C] [D8EFE4AE] CRC32
20 98,8 [04DD1CFD] [B43F1CAD] CRC32
21 98,8 [A4D3C26A] [681B6EF1] CRC32
22 36,2 [AFE3A19D] [5810D0CE] CRC32
23 82,4 [7C5A6DBE] [31FC6B32] CRC32
24 98,8 [B30A03F7] [F09F9808] CRC32
25 98,8 [B07D9465] [3237E766] CRC32
26 60,2 [6F451AE4] [460BBF4E] CRC32
27 98,8 [C789672D] [34020FB7] CRC32
28 98,8 [E6BB45E2] [8B9A113D] CRC32
29 98,8 [2CB84451] [62A5D18C] CRC32
30 98,8 [3B16B2AD] [40296312] CRC32
31 50,9 [8000B9A7] [CFE7F92E] CRC32
32 98,4 [A983C9A8] [85B491A9] CRC32
33 100,0 [30EABE5B] [C4E8F270] CRC32

foobar2000 1.2 / Dynamic Range Meter 1.1.1
log date: 2015-01-28 18:16:37

--------------------------------------------------------------------------------
Analyzed: Hilary Summers, Kemi Ominiyi & R'SVP Voices / The Hitchhiker's Guide to the Galaxy (1)
Joby Talbot / The Hitchhiker's Guide to the Galaxy (2-31)
Neil Hannon / The Hitchhiker's Guide to the Galaxy (32)
Stephen Fry / The Hitchhiker's Guide to the Galaxy (33)
--------------------------------------------------------------------------------

DR Peak RMS Duration Track
--------------------------------------------------------------------------------
DR11 -0.10 dB -14.02 dB 2:27 02-So Long & Thanks for all the Fish
DR15 -8.67 dB -26.60 dB 1:01 01-The Dolphins
DR15 -0.10 dB -20.57 dB 2:54 03-Arthur Wakes Up
DR13 -1.03 dB -16.71 dB 2:51 04-Shoo-Rah! Shoo-Rah!
DR12 -3.04 dB -16.85 dB 4:13 05-Here I Am (Come And Take Me)
DR10 -0.10 dB -15.20 dB 1:32 06-Destruction Of Earth
DR10 -0.10 dB -14.58 dB 1:15 07-Journey of the Sorcerer
DR9 -5.44 dB -20.96 dB 1:15 08-The Hitchhiker's Guide to the Galaxy
DR14 -0.10 dB -19.48 dB 2:46 09-Inside the Vogon Ship
DR13 -5.73 dB -22.61 dB 0:48 10-Vogon Poetry
DR10 -2.10 dB -19.20 dB 1:01 11-Space
DR12 -0.10 dB -17.99 dB 1:00 12-Vogon Command Centre
DR13 -0.10 dB -19.94 dB 1:45 13-Trillian and Arthur Reunited
DR12 -4.38 dB -19.08 dB 1:40 14-Pan Galactic Gargle Blaster
DR9 -8.60 dB -22.32 dB 1:09 15-Tea in Space
DR12 -0.10 dB -18.14 dB 2:06 16-Deep Thought
DR4 -8.62 dB -18.61 dB 0:55 17-Infinite Improbability Drive
DR14 -1.12 dB -17.63 dB 0:45 18-Viltvodle Street Music
DR11 -0.23 dB -17.52 dB 1:02 19-Gabriel Crouch - Huma's Hymn
DR12 -0.10 dB -17.93 dB 4:28 20-Capture of Trillian
DR10 -0.10 dB -15.14 dB 1:02 21-Vogcity
DR10 -8.82 dB -23.96 dB 1:44 22-Love
DR11 -1.67 dB -17.94 dB 1:54 23-The Whale
DR11 -0.10 dB -16.58 dB 2:29 24-Planet Factory Floor
DR13 -0.10 dB -18.30 dB 6:29 25-Earth Mark II
DR10 -4.41 dB -17.76 dB 2:38 26-Perry Como - Magic Moments
DR13 -0.10 dB -17.76 dB 3:23 27-Shootout
DR12 -0.10 dB -17.42 dB 1:50 28-Finale
DR11 -0.10 dB -13.96 dB 0:16 29-Blast Off
DR11 -5.86 dB -20.32 dB 1:42 31-Careless Talk
DR12 -0.14 dB -14.49 dB 3:27 32-N. Hannon, D. Payne, A. Dunlop, M. Baradas, C. Norman, H. Thomas, F. Balke - Vote Beeblebrox
DR11 -0.10 dB -15.14 dB 2:54 30-So Long & Thanks for all the Fish (Reprise)
DR13 0.00 dB -15.01 dB 3:37 33-Reasons to be Miserable (His Name is Marvin)
--------------------------------------------------------------------------------

Number of tracks: 33
Official DR value: DR12

Samplerate: 44100 Hz
Channels: 2
Bits per sample: 16
Bitrate: 833 kbps
Codec: FLAC
================================================================================



All thanks to original releaser





Password: designol