Born to Kill | Next в†’ | Stargate Atlantis

Вход в свой аккаунт

Или войдите через соц. сети

Jerry Goldsmith - Sebastian: Original Motion Picture Soundtrack (1968) [Intrada Special Collection]


Jerry Goldsmith - Sebastian: Original Motion Picture Soundtrack (1968) [Intrada Special Collection]
EAC | FLAC | Image (Cue&Log) ~ 414 Mb (incl 5%) | Mp3 (CBR320) ~ 204 Mb (incl 5%) | Scans included
Genre: Soundtrack, Score | Label: Intrada | # Special Collection Volume 250 | Time: 01:17:27

“ Cool disc for Jerry Goldsmith fans! World premiere release in any format of complete original soundtrack from 1968 mod-era spy tale set within British Intelligence, directed by David Greene, starring Dirk Bogarde, Susannah York, Sir John Gielgud. World of then-high tech computers, soaring IQ's, secret codes and staff of crackerjack decoders captured by composer with meld of snappy rhythm, cool melody. Main theme, rooted firmly in major key, remains one of Goldsmith's most infectious. In balance is richly expressive trumpet line for more romantic side of tale. Mystery, suspense also plays solid role, especially in latter cues. Entire score presented from mono elements as heard in picture, courtesy Paramount Pictures. CD also offers cool extra treat! After exhaustive search, actual multi-track stereo masters for original 1968 Dot label album surface, courtesy UMG and Geffen, allowing first ever licensed release on CD. Stunning audio quality allows terrific presentation of classic record made by Goldsmith (and Dot producer Tom Mack) way back when! While a mere 25 minutes long, their album encapsulated major thematic material beautifully. And another extra! Intrada CD offers unused Tristram Cary music, including variety of Sputnik Code sequences, all in stereo, all courtesy Tristram Cary estate. Flipper cover allows choice of original Dot artwork, film campaign. Definitely a must for groovy sixties soundtrack fans. Jerry Goldsmith conducts. Intrada Special Collection available while quantities and interest remain! ”









Tracklist:

Original Dot Motion Picture Score Album:

01. Main Title (02:33)
02. You Gotta Let Me Go (02:43)
03. The Decoders (02:38)
04. Checkmate (02:15)
05. Carol's Apartment (03:00)
06. Comes The Night (02:41)
07. Night Scene (01:13)
08. The Trip (02:30)
09. Sputnik Code (01:53)
10. First Day At Work (03:29)

Original Motion Picture Soundtrack:

11. The Red Insect (02:32)
12. Main Title (03:57)
13. First Day At Work (03:25)
14. The Decoders (02:50)
15. Night Scene (01:03)
16. Juke Box Jury Number (00:13)
17. A Matter For Thought (00:37)
18. A Visit To Carol (00:59)
19. Under Observation (Checkmate #2) (00:37)
20. The Pursuit (Checkmate #3) (01:04)
21. Checkmate (Checkmate #1) (00:57)
22. In A Bad Way (00:57)
23. The Interior Decorator (00:29)
24. Caught In The Act (00:32)
25. No Answer (Carol's Apartment #2) (01:08)
26. A New Assignment (00:56)
27. Jodrell Bank (01:11)
28. The Wrong Address (Carol's Apartment #1) (01:44)
29. Comes The Night (Carol's Theme) (02:04)
30. The Trip (01:56)
31. The Right Address (00:51)
32. End Title (03:48)

Unused Tristram Cary Material:

33. Sputnik Code Revision - Code With Morse (01:37)
34. Sputnik Code Revision - Code Without Morse (00:13)
35. Sputnik Code Revision - Proper Speed (Full Mix) (03:55)
36. Loop 1 - Clicks And Scrapes (00:57)
37. Loop 2 - Electronic Codes (00:57)
38. Loop 3 - Rattle And Low Notes (00:49)
39. Sputnik Code - Very Wild Mix (02:12)
40. Sputnik Code - Mix With Code (01:50)
41. Final Code Mix - With 10 Second Pulse Removed (01:11)
42. Code 1 (01:10)
43. Code 3 (01:06)
44. Assorted Sounds For Titles (02:23)


Exact Audio Copy V1.0 beta 3 from 29. August 2011

EAC extraction logfile from 28. September 2014, 12:47

Jerry Goldsmith / Sebastian

Used drive : TSSTcorpCDDVDW SH-S202H Adapter: 0 ID: 0

Read mode : Secure
Utilize accurate stream : Yes
Defeat audio cache : Yes
Make use of C2 pointers : No

Read offset correction : 6
Overread into Lead-In and Lead-Out : No
Fill up missing offset samples with silence : Yes
Delete leading and trailing silent blocks : No
Null samples used in CRC calculations : Yes
Used interface : Native Win32 interface for Win NT & 2000

Used output format : Internal WAV Routines
Sample format : 44.100 Hz; 16 Bit; Stereo


TOC of the extracted CD

Track | Start | Length | Start sector | End sector
---------------------------------------------------------
1 | 0:00.00 | 2:33.72 | 0 | 11546
2 | 2:33.72 | 2:43.34 | 11547 | 23805
3 | 5:17.31 | 2:38.03 | 23806 | 35658
4 | 7:55.34 | 2:15.30 | 35659 | 45813
5 | 10:10.64 | 3:00.36 | 45814 | 59349
6 | 13:11.25 | 2:41.07 | 59350 | 71431
7 | 15:52.32 | 1:13.65 | 71432 | 76971
8 | 17:06.22 | 2:30.03 | 76972 | 88224
9 | 19:36.25 | 1:53.38 | 88225 | 96737
10 | 21:29.63 | 3:29.06 | 96738 | 112418
11 | 24:58.69 | 2:32.28 | 112419 | 123846
12 | 27:31.22 | 3:57.28 | 123847 | 141649
13 | 31:28.50 | 3:25.36 | 141650 | 157060
14 | 34:54.11 | 2:50.73 | 157061 | 169883
15 | 37:45.09 | 1:03.02 | 169884 | 174610
16 | 38:48.11 | 0:13.70 | 174611 | 175655
17 | 39:02.06 | 0:37.21 | 175656 | 178451
18 | 39:39.27 | 0:59.55 | 178452 | 182931
19 | 40:39.07 | 0:37.35 | 182932 | 185741
20 | 41:16.42 | 1:04.44 | 185742 | 190585
21 | 42:21.11 | 0:57.67 | 190586 | 194927
22 | 43:19.03 | 0:57.41 | 194928 | 199243
23 | 44:16.44 | 0:29.39 | 199244 | 201457
24 | 44:46.08 | 0:32.74 | 201458 | 203931
25 | 45:19.07 | 1:08.72 | 203932 | 209103
26 | 46:28.04 | 0:56.00 | 209104 | 213303
27 | 47:24.04 | 1:11.41 | 213304 | 218669
28 | 48:35.45 | 1:44.37 | 218670 | 226506
29 | 50:20.07 | 2:04.73 | 226507 | 235879
30 | 52:25.05 | 1:56.64 | 235880 | 244643
31 | 54:21.69 | 0:51.03 | 244644 | 248471
32 | 55:12.72 | 3:48.16 | 248472 | 265587
33 | 59:01.13 | 1:37.68 | 265588 | 272930
34 | 60:39.06 | 0:13.49 | 272931 | 273954
35 | 60:52.55 | 3:55.24 | 273955 | 291603
36 | 64:48.04 | 0:57.02 | 291604 | 295880
37 | 65:45.06 | 0:57.03 | 295881 | 300158
38 | 66:42.09 | 0:49.36 | 300159 | 303869
39 | 67:31.45 | 2:12.01 | 303870 | 313770
40 | 69:43.46 | 1:50.29 | 313771 | 322049
41 | 71:34.00 | 1:11.08 | 322050 | 327382
42 | 72:45.08 | 1:10.74 | 327383 | 332706
43 | 73:56.07 | 1:06.72 | 332707 | 337728
44 | 75:03.04 | 2:23.48 | 337729 | 348501


Range status and errors

Selected range

Filename D:Jerry Goldsmith - SebastianJerry Goldsmith - Sebastian.wav

Peak level 100.0 %
Extraction speed 8.4 X
Range quality 99.9 %
Test CRC A6D93FD6
Copy CRC A6D93FD6
Copy OK

No errors occurred


AccurateRip summary

Track 1 accurately ripped (confidence 10) [A9A4F2C7] (AR v2)
Track 2 accurately ripped (confidence 10) [4C1425EA] (AR v2)
Track 3 accurately ripped (confidence 10) [BA1D8F65] (AR v2)
Track 4 accurately ripped (confidence 10) [9E186C29] (AR v2)
Track 5 accurately ripped (confidence 10) [F2C3C4E9] (AR v2)
Track 6 accurately ripped (confidence 10) [EF6B969F] (AR v2)
Track 7 accurately ripped (confidence 10) [7A8DDEFA] (AR v2)
Track 8 accurately ripped (confidence 10) [2DC4B907] (AR v2)
Track 9 accurately ripped (confidence 10) [49FCBA58] (AR v2)
Track 10 accurately ripped (confidence 10) [FAA8DE3C] (AR v2)
Track 11 accurately ripped (confidence 10) [BF49DE40] (AR v2)
Track 12 accurately ripped (confidence 10) [13DBCB1E] (AR v2)
Track 13 accurately ripped (confidence 10) [F2D3AEAA] (AR v2)
Track 14 accurately ripped (confidence 10) [293F0C1A] (AR v2)
Track 15 accurately ripped (confidence 10) [F4C1E853] (AR v2)
Track 16 accurately ripped (confidence 10) [92528BAF] (AR v2)
Track 17 accurately ripped (confidence 10) [7A01977A] (AR v2)
Track 18 accurately ripped (confidence 10) [F2C45E4C] (AR v2)
Track 19 accurately ripped (confidence 10) [078F591C] (AR v2)
Track 20 accurately ripped (confidence 10) [E2A36441] (AR v2)
Track 21 accurately ripped (confidence 10) [9832CC80] (AR v2)
Track 22 accurately ripped (confidence 10) [F989F87E] (AR v2)
Track 23 accurately ripped (confidence 10) [6249867B] (AR v2)
Track 24 accurately ripped (confidence 10) [E2767928] (AR v2)
Track 25 accurately ripped (confidence 10) [2B8FDA07] (AR v2)
Track 26 accurately ripped (confidence 10) [BFFF60EF] (AR v2)
Track 27 accurately ripped (confidence 10) [79AF4F21] (AR v2)
Track 28 accurately ripped (confidence 10) [39D07D63] (AR v2)
Track 29 accurately ripped (confidence 10) [57C0A61E] (AR v2)
Track 30 accurately ripped (confidence 10) [EDE4525F] (AR v2)
Track 31 accurately ripped (confidence 10) [C5E60CAE] (AR v2)
Track 32 accurately ripped (confidence 10) [7845D24B] (AR v2)
Track 33 accurately ripped (confidence 10) [E78E784C] (AR v2)
Track 34 accurately ripped (confidence 10) [CB97EE4C] (AR v2)
Track 35 accurately ripped (confidence 10) [A2044538] (AR v2)
Track 36 accurately ripped (confidence 10) [2150B426] (AR v2)
Track 37 accurately ripped (confidence 10) [6E3515D1] (AR v2)
Track 38 accurately ripped (confidence 10) [D8563AEB] (AR v2)
Track 39 accurately ripped (confidence 10) [9C0D930D] (AR v2)
Track 40 accurately ripped (confidence 10) [D817407D] (AR v2)
Track 41 accurately ripped (confidence 10) [5093A00D] (AR v2)
Track 42 accurately ripped (confidence 10) [EAC29530] (AR v2)
Track 43 accurately ripped (confidence 10) [61A23B86] (AR v2)
Track 44 accurately ripped (confidence 10) [64260A3A] (AR v2)

All tracks accurately ripped

End of status report

==== Log checksum 852D88228736925641166FCD64A22171E1A63607B23EEA44E5EDFAD707D0F393 ====

foobar2000 1.2 / Dynamic Range Meter 1.1.1
log date: 2015-01-27 21:05:52

--------------------------------------------------------------------------------
Analyzed: Jerry Goldsmith / Sebastian
--------------------------------------------------------------------------------

DR Peak RMS Duration Track
--------------------------------------------------------------------------------
DR12 0.00 dB -15.16 dB 2:34 01-Main Title
DR12 -0.26 dB -14.70 dB 2:43 02-You Gotta Let Me Go
DR11 -0.77 dB -15.84 dB 2:38 03-The Decoders
DR13 0.00 dB -17.32 dB 2:15 04-Checkmate
DR11 -0.25 dB -16.84 dB 3:00 05-Carol's Apartment
DR11 -1.92 dB -16.20 dB 1:14 07-Night Scene
DR13 0.00 dB -17.34 dB 2:30 08-The Trip
DR13 -0.03 dB -17.57 dB 3:29 10-First Day At Work
DR11 -0.27 dB -15.82 dB 2:32 11-The Red Insect
DR11 -1.74 dB -16.87 dB 3:57 12-Main Title
DR11 -1.02 dB -15.14 dB 3:25 13-First Day At Work
DR11 -2.31 dB -17.22 dB 2:51 14-The Decoders
DR10 -2.32 dB -15.55 dB 1:03 15-Night Scene
DR10 -3.84 dB -16.85 dB 0:14 16-Juke Box Jury Number
DR9 -1.00 dB -15.23 dB 0:37 17-A Matter For Thought
DR10 -1.55 dB -17.26 dB 1:00 18-A Visit To Carol
DR10 -1.19 dB -15.24 dB 0:37 19-Under Observation (Checkmate #2)
DR10 -2.18 dB -14.67 dB 1:05 20-The Pursuit (Checkmate #3)
DR11 -1.25 dB -16.17 dB 0:58 21-Checkmate (Checkmate #1)
DR10 -2.90 dB -19.85 dB 0:58 22-In A Bad Way
DR12 -0.76 dB -17.19 dB 0:30 23-The Interior Decorator
DR7 -2.68 dB -17.24 dB 0:33 24-Caught In The Act
DR9 -3.38 dB -15.69 dB 1:09 25-No Answer (Carol's Apartment #2)
DR10 -2.64 dB -19.41 dB 0:56 26-A New Assignment
DR10 -2.01 dB -14.06 dB 1:12 27-Jodrell Bank
DR12 -1.97 dB -18.41 dB 1:44 28-The Wrong Address (Carol's Apartment #1)
DR12 -1.88 dB -16.64 dB 2:05 29-Comes The Night (Carol's Theme)
DR12 -0.35 dB -16.43 dB 1:57 30-The Trip
DR9 -2.60 dB -15.23 dB 0:51 31-The Right Address
DR13 -0.09 dB -16.87 dB 3:48 32-End Title
--------------------------------------------------------------------------------

Number of tracks: 30
Official DR value: DR11

Samplerate: 44100 Hz
Channels: 2
Bits per sample: 16
Bitrate: 682 kbps
Codec: FLAC
================================================================================

--------------------------------------------------------------------------------
Analyzed: Jimmy A. Hassell / Sebastian (1)
Tristram Cary / Sebastian (2-14)
--------------------------------------------------------------------------------

DR Peak RMS Duration Track
--------------------------------------------------------------------------------
DR11 -0.05 dB -14.54 dB 2:41 06-Comes The Night
DR11 -3.15 dB -18.85 dB 1:54 09-Sputnik Code
DR15 -1.33 dB -18.14 dB 1:38 33-Sputnik Code Revision - Code With Morse
DR17 -4.53 dB -25.49 dB 0:14 34-Sputnik Code Revision - Code Without Morse
DR16 -1.48 dB -20.03 dB 3:55 35-Sputnik Code Revision - Proper Speed (Full Mix)
DR16 -1.89 dB -20.66 dB 0:57 36-Loop 1 - Clicks And Scrapes
DR13 -3.54 dB -20.83 dB 0:57 37-Loop 2 - Electronic Codes
DR14 -2.86 dB -23.34 dB 0:49 38-Loop 3 - Rattle And Low Notes
DR15 -0.49 dB -18.55 dB 2:12 39-Sputnik Code - Very Wild Mix
DR13 -4.05 dB -20.44 dB 1:50 40-Sputnik Code - Mix With Code
DR13 -3.57 dB -19.28 dB 1:11 41-Final Code Mix - With 10 Second Pulse Removed
DR17 -4.83 dB -24.35 dB 1:11 42-Code 1
DR17 -5.66 dB -25.80 dB 1:07 43-Code 3
DR13 -1.29 dB -18.11 dB 2:24 44-Assorted Sounds For Titles
--------------------------------------------------------------------------------

Number of tracks: 14
Official DR value: DR15

Samplerate: 44100 Hz
Channels: 2
Bits per sample: 16
Bitrate: 682 kbps
Codec: FLAC
================================================================================



All thanks to original releaser - Composer's fan







Password: designol