BBC Secrets of Bones | Responder | Ryan Satterfeal

Вход в свой аккаунт

Или войдите через соц. сети

Ennio Morricone - Guns For San Sebastian: Original Motion Picture Soundtrack (1968) Silver Age Classics Limited Edition 2006


Ennio Morricone - Guns For San Sebastian: Original Motion Picture Soundtrack (1968) Silver Age Classics Limited Edition 2006
EAC | FLAC | Image (Cue&Log) ~ 336 Mb (incl 5%) | Mp3 (CBR320) ~ 144 Mb (incl 5%) | Scans ~ 84 Mb
Genre: Soundtrack, Score | Label: Film Score Monthly | # FSM Vol.9 No.14 | Time: 00:59:56

“ It has taken eight years and over 130 CDs but FSM finally releases a score by the great Ennio Morricone: Guns for San Sebastian (1968), commonly known as a western but more accurately a historical adventure set in Mexico circa 1750. The film stars Anthony Quinn as an outlaw who is mistaken for a priest and protects a humble village against a violent tribe of Indians; Charles Bronson is the antagonist and Anjanette Comer the love interest. Filmed in Mexico, the international production is a sunburnt, action-packed look at a violent time in colonial Latin American history.

The late 1960s were an especially fertile period for Ennio Morricone, whose prolific genius has enhanced hundreds of films for over 40 years. By 1968 Morricone had already scored the groundbreaking Dollars trilogy for Sergio Leone—establishing the revolutionary style for the "spaghetti" westerns—and Guns for San Sebastian preceded their western masterpiece, Once Upon a Time in the West. In both films, the operatic grandeur of Morricone's transcendent themes enhance the spiritual journey of a stranger in a strange land, orchestrated for choir as well as orchestra; in Guns for San Sebastian, voices appears for the "religion" theme (for Quinn's priest friend) and the love theme, the latter featuring the voice of Edda Dell'Orso.

Guns for San Sebastian is also an action film and Morricone responded with violent, percussive music for the Yaquis Indians, with vocal cries by Gianna Spagnulo (who also performed on Morricone's Navajo Joe and Moses). In addition, Morricone wrote heartfelt, deceptively simple melodies for the peasants whose humanity grounds the story, and unique cues as needed for scenes of action, suspense and humor.

Guns for San Sebastian has been available on LP and CD over the years, but always in a brief (33:24) program with deficient sound quality. This premiere CD of the complete score (resequenced in film order) has been remixed and remastered from the original 1/2" stereo tapes (recorded in Italy) for superior sound quality. It is the definitive presentation of this classic Morricone score.
”


“ This glorious Ennio Morricone soundtrack is phenomenal. It compares well with his masterwork "Once Upon A Time In The West" and, although the themes he writes here can be more action-oriented, some marvelous similarities shine through. Though close, it's not quite as varied thematically as "OUATITW", but, the themes themselves are sometimes just as strong. Futhermore it can be just as epic and every bit as spiritual. "Guns" was released in 1968, a year before "OUATITW", and some have said this was, in effect, a dry run for that 1969 masterpiece. The ground here is somewhat familiar in that it features the amazing wordless vocals of Edda Dell'Orso, the Italian opera singer whose performances wowed fans of Morricone's "The Good, The Bad And The Ugly" - and of course "OUATITW" - and even well beyond.

"Guns", the movie, is an internationally produced historical adventure set in Mexico, circa 1750. Anthony Quinn is Leon, an outlaw who is hiding out in an impoverished farming village. Charles Bronson is Teclo, a half-breed who induces an aggressive band of Yaqui Indians to harass the town. The new stranger Leon is mistaken by the townspeople as a priest and they repeatedly look to him for guidance against the marauding Yaqui, but, Leon is torn between his self-interests and the needs of the humble peasants. Thrown into the mix is Kinita (Anjanette Comer) who plays Leo's love interest.

Morricone wrote a deceptively simple theme to reflect the humble servitude of the peasants that ties into the christian religious side of the score, and the Yaqui have their own theme that can be aggressive, yet can also be equally spiritual - underlining the Indians' own humanity. The score is mostly centered around this "christian-vs-pagan" duality. If you've never heard this score before, you may be surprised to learn that this soundtrack has, aesthetically, an amazingly successful love theme that, with the talents of Dell'Orso, becomes beautifully and easily trancendent. Then again, to Morricone fans, that may come as no surprise at all. For spirituality on the Yaqui side of the score, there is the no-less talented Gianna Spagnulo whose wordless Indian cries are an equally spiritual answer to Dell'Orso's heavenly tones.

The different themes, in the hands of Morricone, offer up both simplicity and complexity in the use of melodies, alternating in and out of major and minor key, and the themes are woven together and relate to one another with a particular deftness of composition that is highly rewarding to listen to - again and again.

The Film Score Monthly label has done it again and released yet another deserving (and expanded) soundtrack - this one remastered from the original 1/2" three-track tapes for the best available sound. Highly recommended to all soundtrack buffs and a must-have for Morricone fans.

Review by jartwo, Amazon.com
”









Tracklist:

01. The Overture (03:47)
02. Prologue/The Chase (02:50)
03. Church Music/Sneaking Away (01:48)
04. The Long Trek (05:15)
05. The Assault (01:31)
06. The Bandits / Leon Tied / Bleeding Statue (02:49)
07. Love Theme From Guns For San Sebastian (Kinita's Plea) (02:02)
08. Restoring The Village (01:10)
09. Teclo Shamed / Surveying The Fields (02:05)
10. Building The Dam / Hymn For San Sebastian (01:28)
11. Leon Fights Teclo (01:57)
12. The Burning Village (02:38)
13. Love Theme From Guns For San Sebastian (Leon Tells His Love) (02:54)
14. Love Theme From Guns For San Sebastian (Leon Leaves Kinita) (02:57)
15. Music At The Governor's Dinner (01:53)
16. Army March / Yaqui Camp (01:43)
17. The White Stallion (01:35)
18. The Gift (03:25)
19. Gift Returned / Leon's Mass / The Attack (03:36)
20. The Villagers Prepare To Blow Up The Dam (01:28)
21. Teclo's Death / Victory (01:58)
22. End Title (04:08)

Bonus tracks:

23. The Chase (Alternate) (01:56)
24. Love Theme From Guns For San Sebastian (Leon Tells His Love) (Album Version) (02:51)


EAC extraction logfile from 16. December 2006, 12:00 for CD
Ennio Morricone / Guns For San Sebastian

Used drive : HL-DT-STCD-RW GCE-8526B Adapter: 1 ID: 1
Read mode : Secure with NO C2, accurate stream, disable cache
Read offset correction : 6
Overread into Lead-In and Lead-Out : No

Used output format : Internal WAV Routines
44.100 Hz; 16 Bit; Stereo

Other options :
Fill up missing offset samples with silence : Yes
Delete leading and trailing silent blocks : No
Installed external ASPI interface


Range status and errors
Selected range
Filename C:EACEnnio Morricone - Guns For San SebastianEnnio Morricone - Guns For San Sebastian.wav

Peak level 99.9 %
Range quality 100.0 %
CRC 52E9236A
Copy OK

No errors occured

End of status report

[CUETools log; Date: 21.01.2015 22:12:16; Version: 2.1.4]
[CTDB TOCID: AVXHPFb3yAUTgNoGJqa.CTQhDV4-] found.
Track | CTDB Status
1 | (6/6) Accurately ripped
2 | (6/6) Accurately ripped
3 | (6/6) Accurately ripped
4 | (6/6) Accurately ripped
5 | (6/6) Accurately ripped
6 | (6/6) Accurately ripped
7 | (6/6) Accurately ripped
8 | (6/6) Accurately ripped
9 | (6/6) Accurately ripped
10 | (6/6) Accurately ripped
11 | (6/6) Accurately ripped
12 | (6/6) Accurately ripped
13 | (6/6) Accurately ripped
14 | (6/6) Accurately ripped
15 | (6/6) Accurately ripped
16 | (6/6) Accurately ripped
17 | (6/6) Accurately ripped
18 | (6/6) Accurately ripped
19 | (6/6) Accurately ripped
20 | (6/6) Accurately ripped
21 | (6/6) Accurately ripped
22 | (6/6) Accurately ripped
23 | (6/6) Accurately ripped
24 | (5/6) Accurately ripped
[AccurateRip ID: 003427eb-03797147-3e0e0c18] found.
Track [ CRC | V2 ] Status
01 [df9c611d|52ce27e8] (4+5/9) Accurately ripped
02 [d3d0003a|7b2fdd6d] (4+5/9) Accurately ripped
03 [25d26a83|1d54cd07] (4+5/9) Accurately ripped
04 [2dae4466|b8718f8e] (4+5/9) Accurately ripped
05 [9a6a6df7|a39428e4] (4+5/9) Accurately ripped
06 [f220775a|37bbf100] (4+5/9) Accurately ripped
07 [f8ed6764|30e09f93] (4+5/9) Accurately ripped
08 [debd08b5|96246368] (4+5/9) Accurately ripped
09 [01fcd28b|9a3306af] (4+5/9) Accurately ripped
10 [218d5409|29390b7f] (4+5/9) Accurately ripped
11 [bd3932c2|9706dd0e] (4+5/9) Accurately ripped
12 [5671cd60|86f55e2d] (4+5/9) Accurately ripped
13 [ed4457d3|bbd2c6d9] (4+5/9) Accurately ripped
14 [db895941|dd84e41b] (4+5/9) Accurately ripped
15 [9e937995|105095a9] (4+5/9) Accurately ripped
16 [ec8ba411|506edfbc] (4+5/9) Accurately ripped
17 [8660521a|ee756c87] (4+5/9) Accurately ripped
18 [a9c7fc0c|9d5b1d6a] (4+5/9) Accurately ripped
19 [08c7e746|e5f46a45] (4+5/9) Accurately ripped
20 [0b9501a2|fea6bf73] (4+5/9) Accurately ripped
21 [77a77bd4|f90baabd] (4+5/9) Accurately ripped
22 [097a4472|aaf241ea] (4+5/9) Accurately ripped
23 [5735f49d|826a5ce4] (4+5/9) Accurately ripped
24 [8e1f4948|c80123e2] (4+4/8) Accurately ripped

Track Peak [ CRC32 ] [W/O NULL]
-- 99,9 [52E9236A] [97EC8757]
01 95,7 [9429CA9E] [872DD07D]
02 82,9 [4B101D4B] [F0C112B2]
03 91,7 [EB4B0147] [FFC43727]
04 95,4 [5610EB2A] [E2694E75]
05 99,9 [A72A0860] [8D27988A]
06 95,1 [37F8DB40] [63159B67]
07 99,1 [AB376464] [60424677]
08 70,1 [06E17857] [2102C178]
09 98,9 [9A340F2D] [CFE3F0D4]
10 94,5 [DDBB8553] [14831F2C]
11 98,1 [DF726C3F] [FC6AD992]
12 99,5 [9271E33C] [046A975F]
13 98,8 [9D99904A] [4D5F7B87]
14 99,2 [78325358] [E0170755]
15 71,6 [B4FF16C1] [CB92BF7D]
16 99,0 [685F3297] [6593B2C8]
17 99,8 [95576405] [1882B356]
18 85,3 [136DFAB0] [DEC5C5EF]
19 99,9 [33CC293E] [9EB263CF]
20 78,6 [72AD7299] [F4DC4936]
21 96,2 [EE129E9D] [8B23E26C]
22 99,9 [95F55F7D] [5C94225C]
23 97,7 [E95F35E6] [C9C3C982]
24 98,4 [18D1B942] [78C1E892]

foobar2000 1.2 / Dynamic Range Meter 1.1.1
log date: 2015-01-21 22:40:01

--------------------------------------------------------------------------------
Analyzed: Ennio Morricone / Guns For San Sebastian
--------------------------------------------------------------------------------

DR Peak RMS Duration Track
--------------------------------------------------------------------------------
DR10 -0.38 dB -13.83 dB 3:47 01-The Overture
DR11 -1.63 dB -15.40 dB 2:50 02-Prologue/The Chase
DR11 -0.75 dB -18.04 dB 1:49 03-Church Music/Sneaking Away
DR11 -0.40 dB -16.61 dB 5:15 04-The Long Trek
DR14 -0.01 dB -21.24 dB 1:31 05-The Assault
DR10 -0.44 dB -15.84 dB 2:49 06-The Bandits / Leon Tied / Bleeding Statue
DR8 -0.07 dB -10.23 dB 2:03 07-Love Theme From Guns For San Sebastian (Kinita's Plea)
DR9 -3.08 dB -16.45 dB 1:11 08-Restoring The Village
DR10 -0.09 dB -15.83 dB 2:06 09-Teclo Shamed / Surveying The Fields
DR10 -0.48 dB -15.09 dB 1:29 10-Building The Dam / Hymn For San Sebastian
DR10 -0.16 dB -13.06 dB 1:58 11-Leon Fights Teclo
DR10 -0.04 dB -14.79 dB 2:39 12-The Burning Village
DR10 -0.10 dB -16.01 dB 2:55 13-Love Theme From Guns For San Sebastian (Leon Tells His Love)
DR10 -0.06 dB -13.29 dB 2:57 14-Love Theme From Guns For San Sebastian (Leon Leaves Kinita)
DR10 -2.90 dB -18.16 dB 1:53 15-Music At The Governor's Dinner
DR9 -0.09 dB -13.66 dB 1:43 16-Army March / Yaqui Camp
DR8 -0.01 dB -10.91 dB 1:35 17-The White Stallion
DR11 -1.38 dB -16.80 dB 3:26 18-The Gift
DR11 0.00 dB -15.10 dB 3:37 19-Gift Returned / Leon's Mass / The Attack
DR10 -2.08 dB -15.11 dB 1:29 20-The Villagers Prepare To Blow Up The Dam
DR10 -0.33 dB -13.67 dB 1:59 21-Teclo's Death / Victory
DR10 -0.01 dB -13.60 dB 4:08 22-End Title
DR10 -0.20 dB -13.45 dB 1:56 23-The Chase (Alternate)
DR10 -0.13 dB -15.61 dB 2:51 24-Love Theme From Guns For San Sebastian (Leon Tells His Love) (Album Version)
--------------------------------------------------------------------------------

Number of tracks: 24
Official DR value: DR10

Samplerate: 44100 Hz
Channels: 2
Bits per sample: 16
Bitrate: 737 kbps
Codec: FLAC
================================================================================



All thanks to original releaser
























Password: designol