Witch's Pyre | Assistir Tráfico de Mulheres Dublado Online | Криминал

Henry Mancini - Condorman: Original Motion Picture Soundtrack (1981) Intrada Special Collection 2012


Henry Mancini - Condorman: Original Motion Picture Soundtrack (1981) Intrada Special Collection 2012
EAC | FLAC | Image (Cue&Log) ~ 337 Mb (incl 5%) | Mp3 (CBR320) ~ 163 Mb (incl 5%) | Scans included
Genre: Soundtrack, Score | Label: Intrada | # ISC 219 | Time: 01:00:28

Exciting Henry Mancini score finally gets released! 1981 action-filled Disney comicbook superhero tale directed by Charles Jarrott, starring Michael Crawford, Oliver Reed, Barbara Carrera inspires Henry Mancini to write one of his most exciting, energetic scores of his career. Mancini anchors with robust "Condorman" theme (including fun chorus), then tackles profuse action scenes with dynamic, propulsive action material for full orchestra. Powerful trombone lines, aggressive rhythms, fanfares for trumpets all get spotlight! Music for killer Morovich is especially aggressive. In contrast, Mancini creates one of his gentlest, most heartfelt pretty themes for Natalia, given particular prominence in beautifully-scored "Free Single Woman". Interestingly, due to licensing, not a note of this splendid score has ever been released before, not even as a single theme on one of the numerous Mancini compilations of the era. Now, through courtesy of Disney, Intrada presents entire score (plus several extras) in crisp, punchy stereo, direct from multi-track scoring session masters stored in mint condition in Disney vaults. Colorful artwork, too!









Tracklist:

The Album:

01. Condorman Main Title (03:07)
02. Eiffel Tower Flight (00:38)
03. First Flight (00:49)
04. It Was Nothing (01:53)
05. Meet Laser Lady (01:19)
06. The Gypsy (02:16)
07. Free Single Woman (02:58)
08. Attack Of The Prognoviach (05:15)
09. Morovich Again (01:36)
10. The Barn (01:05)
11. Natalia's Theme (01:50)
12. Morovich Presses (03:41)
13. Welcome To The Matterhorn (01:55)
14. Joy Ride (02:29)
15. I'll Bring The Dip (Natalia's Rescue) (02:22)
16. Bye-Bye Rolls (03:46)
17. The Speed Boat Chase (02:04)
18. More Speed Boat Chase (01:58)
19. End Title (01:15)
20. Theme From Condorman (01:40)

The Extras:

21. Mummy Tummy (03:08)
22. Mummy Tummy (Alternate) (02:17)
23. Belly Dance (02:56)
24. Walk On Ice (00:49)
25. Accordian Dance (01:50)
26. Russian Party Dance (01:50)
27. Son Of Russian Party Dance (02:56)
28. Condorman Logo (Outtake) (00:34)


Exact Audio Copy V1.0 beta 3 from 29. August 2011

EAC extraction logfile from 31. August 2013, 10:34

Henry Mancini / Condorman

Used drive : TSSTcorpCDDVDW SH-S202H Adapter: 0 ID: 0

Read mode : Secure
Utilize accurate stream : Yes
Defeat audio cache : Yes
Make use of C2 pointers : No

Read offset correction : 6
Overread into Lead-In and Lead-Out : No
Fill up missing offset samples with silence : Yes
Delete leading and trailing silent blocks : No
Null samples used in CRC calculations : Yes
Used interface : Native Win32 interface for Win NT & 2000

Used output format : Internal WAV Routines
Sample format : 44.100 Hz; 16 Bit; Stereo


TOC of the extracted CD

Track | Start | Length | Start sector | End sector
---------------------------------------------------------
1 | 0:00.00 | 3:07.30 | 0 | 14054
2 | 3:07.30 | 0:38.33 | 14055 | 16937
3 | 3:45.63 | 0:49.45 | 16938 | 20657
4 | 4:35.33 | 1:53.37 | 20658 | 29169
5 | 6:28.70 | 1:19.07 | 29170 | 35101
6 | 7:48.02 | 2:16.27 | 35102 | 45328
7 | 10:04.29 | 2:58.39 | 45329 | 58717
8 | 13:02.68 | 5:15.71 | 58718 | 82413
9 | 18:18.64 | 1:36.70 | 82414 | 89683
10 | 19:55.59 | 1:05.05 | 89684 | 94563
11 | 21:00.64 | 1:50.37 | 94564 | 102850
12 | 22:51.26 | 3:41.35 | 102851 | 119460
13 | 26:32.61 | 1:55.38 | 119461 | 128123
14 | 28:28.24 | 2:29.32 | 128124 | 139330
15 | 30:57.56 | 2:22.00 | 139331 | 149980
16 | 33:19.56 | 3:46.01 | 149981 | 166931
17 | 37:05.57 | 2:04.32 | 166932 | 176263
18 | 39:10.14 | 1:58.03 | 176264 | 185116
19 | 41:08.17 | 1:15.42 | 185117 | 190783
20 | 42:23.59 | 1:40.67 | 190784 | 198350
21 | 44:04.51 | 3:08.04 | 198351 | 212454
22 | 47:12.55 | 2:17.36 | 212455 | 222765
23 | 49:30.16 | 2:56.42 | 222766 | 236007
24 | 52:26.58 | 0:49.28 | 236008 | 239710
25 | 53:16.11 | 1:50.46 | 239711 | 248006
26 | 55:06.57 | 1:50.69 | 248007 | 256325
27 | 56:57.51 | 2:56.34 | 256326 | 269559
28 | 59:54.10 | 0:34.10 | 269560 | 272119


Range status and errors

Selected range

Filename D:Henry Mancini - CondormanHenry Mancini - Condorman.wav

Peak level 100.0 %
Extraction speed 7.8 X
Range quality 100.0 %
Test CRC BE8468B0
Copy CRC BE8468B0
Copy OK

No errors occurred


AccurateRip summary

Track 1 accurately ripped (confidence 11) [B28BDD91] (AR v2)
Track 2 accurately ripped (confidence 11) [B810F34F] (AR v2)
Track 3 accurately ripped (confidence 11) [992C775A] (AR v2)
Track 4 accurately ripped (confidence 11) [B5E97076] (AR v2)
Track 5 accurately ripped (confidence 11) [C50DDE59] (AR v2)
Track 6 accurately ripped (confidence 11) [92C79072] (AR v2)
Track 7 accurately ripped (confidence 11) [6D4FEECE] (AR v2)
Track 8 accurately ripped (confidence 11) [EAA56762] (AR v2)
Track 9 accurately ripped (confidence 11) [79194DF2] (AR v2)
Track 10 accurately ripped (confidence 11) [FAC1441E] (AR v2)
Track 11 accurately ripped (confidence 11) [51E827F5] (AR v2)
Track 12 accurately ripped (confidence 11) [A616425E] (AR v2)
Track 13 accurately ripped (confidence 11) [B47D0942] (AR v2)
Track 14 accurately ripped (confidence 11) [4D15286B] (AR v2)
Track 15 accurately ripped (confidence 11) [DA5D1663] (AR v2)
Track 16 accurately ripped (confidence 11) [75731B95] (AR v2)
Track 17 accurately ripped (confidence 11) [935F7E07] (AR v2)
Track 18 accurately ripped (confidence 11) [8D9E18AC] (AR v2)
Track 19 accurately ripped (confidence 11) [C343411F] (AR v2)
Track 20 accurately ripped (confidence 11) [C2718B9E] (AR v2)
Track 21 accurately ripped (confidence 11) [DE79E272] (AR v2)
Track 22 accurately ripped (confidence 11) [A847E892] (AR v2)
Track 23 accurately ripped (confidence 11) [7A2928C3] (AR v2)
Track 24 accurately ripped (confidence 11) [B574910C] (AR v2)
Track 25 accurately ripped (confidence 11) [97DC183B] (AR v2)
Track 26 accurately ripped (confidence 11) [6A24C096] (AR v2)
Track 27 accurately ripped (confidence 11) [AC632416] (AR v2)
Track 28 accurately ripped (confidence 12) [D362DE81] (AR v2)

All tracks accurately ripped

End of status report

==== Log checksum 886823BD7529D9D645B08F31234DADD62A428E25E0D66F6FD905FF6B3E245110 ====

foobar2000 1.2 / Dynamic Range Meter 1.1.1
log date: 2015-01-21 00:57:52

--------------------------------------------------------------------------------
Analyzed: Henry Mancini / Condorman
--------------------------------------------------------------------------------

DR Peak RMS Duration Track
--------------------------------------------------------------------------------
DR12 0.00 dB -16.06 dB 3:07 01-Condorman Main Title
DR13 -1.52 dB -23.00 dB 0:38 02-Eiffel Tower Flight
DR10 -0.47 dB -17.82 dB 0:50 03-First Flight
DR11 -7.50 dB -23.32 dB 1:53 04-It Was Nothing
DR10 -8.45 dB -25.55 dB 1:19 05-Meet Laser Lady
DR12 -9.71 dB -26.51 dB 2:16 06-The Gypsy
DR12 -4.54 dB -21.18 dB 2:59 07-Free Single Woman
DR13 -0.54 dB -18.28 dB 5:16 08-Attack Of The Prognoviach
DR13 -1.00 dB -17.15 dB 1:37 09-Morovich Again
DR10 -11.77 dB -25.68 dB 1:05 10-The Barn
DR11 -8.01 dB -23.96 dB 1:50 11-Natalia's Theme
DR12 -3.03 dB -20.75 dB 3:41 12-Morovich Presses
DR10 -4.70 dB -18.22 dB 1:56 13-Welcome To The Matterhorn
DR10 -5.33 dB -20.21 dB 2:29 14-Joy Ride
DR15 0.00 dB -19.25 dB 2:22 15-I'll Bring The Dip (Natalia's Rescue)
DR14 -0.55 dB -19.11 dB 3:46 16-Bye-Bye Rolls
DR12 -0.41 dB -17.40 dB 2:04 17-The Speed Boat Chase
DR12 -0.18 dB -16.54 dB 1:58 18-More Speed Boat Chase
DR15 0.00 dB -21.96 dB 1:16 19-End Title
DR13 0.00 dB -17.08 dB 1:41 20-Theme From Condorman
DR17 -2.75 dB -24.52 dB 3:08 21-Mummy Tummy
DR15 -2.30 dB -20.23 dB 2:17 22-Mummy Tummy (Alternate)
DR17 -2.12 dB -22.45 dB 2:57 23-Belly Dance
DR12 -5.08 dB -19.37 dB 0:49 24-Walk On Ice
DR14 -2.14 dB -19.00 dB 1:51 25-Accordian Dance
DR12 -2.95 dB -18.69 dB 1:51 26-Russian Party Dance
DR11 -7.64 dB -22.67 dB 2:56 27-Son Of Russian Party Dance
DR13 -0.36 dB -16.31 dB 0:34 28-Condorman Logo (Outtake)
--------------------------------------------------------------------------------

Number of tracks: 28
Official DR value: DR13

Samplerate: 44100 Hz
Channels: 2
Bits per sample: 16
Bitrate: 707 kbps
Codec: FLAC
================================================================================



All thanks to original releaser - Composer's fan





Password: designol