Franz Ferdinand Sparks (FFS) | Terry Gill | Allegiance (2015) - Saison 1

Вход в свой аккаунт

Или войдите через соц. сети

Phil Collins, Anne Dudley & VA - Buster: Original Motion Picture Soundtrack (1988)


Phil Collins, Anne Dudley & VA - Buster: Original Motion Picture Soundtrack (1988)
EAC | FLAC | Image (Cue&Log) ~ 263 Mb (incl 5%) | Mp3 (CBR320) ~ 101 Mb (incl 5%) | Scans included
Genre: Soundtrack, Score, Pop, Pop Rock, R&B | Label: Virgin | # CDV2544 | Time: 00:41:06

“ This is the excellent soundtrack album to the 1988 movie "Buster" starring Phil Collins in his feature film debut as a famed British thief. Phil also contributed to the film's soundtrack album, and the "Buster" soundtrack does have a lot of great tunes on it, not only the two big #1 hit songs from Phil, "Two Hearts" and "A Groovy Kind Of Love," but also some classic 60's tunes from the likes of Sonny & Cher, The Spencer Davis Group, Dusty Springfield, and Gerry & The Pacemakers. Phil also contributes another pair of great songs, one sung by The Four Tops ("Loco In Acapulco"), and the up-tempo, rhythmic fun of "Big Noise," while Anne Dudley composes the fine orchestral music, which is sprinkled throughout the soundtrack album (including "The Robbery," featuring Phil on drums). I'm disappointed that the movie didn't do particularly well, but Phil did give an excellent performance as Buster, and he also delivered a great little batch of tunes to the soundtrack. The "Buster" movie soundtrack is a must-own CD for any diehard Phil fan. Pick it up!

Review by Alan Caylow, Amazon.com
”





Tracklist:

01.a. Phil Collins - Two Hearts (03:24)
01.b. Anne Dudley - incidental link-/ Gardening By The Book (00:24)
02.a. The Hollies - Just One Look (02:28)
02.b. Anne Dudley - incidental link-/ ...and I Love Her (01:29)
03.a. Phil Collins - Big Noise (03:54)
03.b. Anne Dudley - The Robbery (07:30)
05. Sonny & Cher - I Got You Babe (03:09)
06.a. Anne Dudley - incidental link-/ Alone in Acapulco (00:14)
06.b. Four Tops - Loco in Acapulco (04:11)
07.a. Gerry & The Pacemakers - How Do You Do It? (01:52)
07.b. Anne Dudley - incidental link-/ Thoughts of Home (00:33)
08.a. Dusty Springfield - I Just Don't Know What To Do With Myself (03:02)
08.b. Anne Dudley - incidental link-/ The Good Life (01:02)
09. The Searchers - Sweets for My Sweet (02:25)
10. Anne Dudley - Will You Still Be Waiting (01:53)
11. Phil Collins - Groovy Kind of Love (03:29)


Exact Audio Copy V0.99 prebeta 4 from 23. January 2008

EAC extraction logfile from 20. February 2009, 0:55

Various / Buster the Original Soundtrack

Used drive : HL-DT-STDVDRAM_GSA-T20N Adapter: 0 ID: 0

Read mode : Secure
Utilize accurate stream : Yes
Defeat audio cache : Yes
Make use of C2 pointers : No

Read offset correction : 667
Overread into Lead-In and Lead-Out : No
Fill up missing offset samples with silence : Yes
Delete leading and trailing silent blocks : No
Null samples used in CRC calculations : Yes
Used interface : Native Win32 interface for Win NT & 2000

Used output format : User Defined Encoder
Selected bitrate : 768 kBit/s
Quality : High
Add ID3 tag : No
Command line compressor : C:Program FilesExact Audio CopyFLACFLAC.EXE
Additional command line options : -6 -V -T "ARTIST=%a" -T "TITLE=%t" -T "ALBUM=%g" -T "DATE=%y" -T "TRACKNUMBER=%n" -T "GENRE=%m" -T "COMMENT=%e" %s -o %d


TOC of the extracted CD

Track | Start | Length | Start sector | End sector
---------------------------------------------------------
1 | 0:00.00 | 3:24.40 | 0 | 15339
2 | 3:24.40 | 0:24.37 | 15340 | 17176
3 | 3:49.02 | 2:28.28 | 17177 | 28304
4 | 6:17.30 | 1:29.55 | 28305 | 35034
5 | 7:47.10 | 3:54.32 | 35035 | 52616
6 | 11:41.42 | 7:30.23 | 52617 | 86389
7 | 19:11.65 | 3:09.05 | 86390 | 100569
8 | 22:20.70 | 0:14.07 | 100570 | 101626
9 | 22:35.02 | 4:11.33 | 101627 | 120484
10 | 26:46.35 | 1:52.52 | 120485 | 128936
11 | 28:39.12 | 0:33.28 | 128937 | 131439
12 | 29:12.40 | 3:02.05 | 131440 | 145094
13 | 32:14.45 | 1:02.05 | 145095 | 149749
14 | 33:16.50 | 2:25.62 | 149750 | 160686
15 | 35:42.37 | 1:53.48 | 160687 | 169209
16 | 37:36.10 | 3:29.65 | 169210 | 184949


Range status and errors

Selected range

Filename D:Various - Buster the Original Soundtrack.wav

Peak level 99.8 %
Range quality 100.0 %
Copy CRC 922ABB57
Copy OK

No errors occurred


AccurateRip summary

Track 1 cannot be verified as accurate (confidence 7) [D47EDBC1], AccurateRip returned [187F413F]
Track 2 cannot be verified as accurate (confidence 7) [55E431E7], AccurateRip returned [6AE7CDC6]
Track 3 cannot be verified as accurate (confidence 7) [5BCE1597], AccurateRip returned [0F997FB0]
Track 4 cannot be verified as accurate (confidence 7) [9039C96D], AccurateRip returned [78D6FCAC]
Track 5 cannot be verified as accurate (confidence 7) [A8A67DD9], AccurateRip returned [119513DA]
Track 6 cannot be verified as accurate (confidence 7) [CC8D7585], AccurateRip returned [48E87BC6]
Track 7 cannot be verified as accurate (confidence 7) [97986C24], AccurateRip returned [3C4D6CD2]
Track 8 cannot be verified as accurate (confidence 7) [A322DEDB], AccurateRip returned [AB946FAC]
Track 9 cannot be verified as accurate (confidence 7) [3E68F934], AccurateRip returned [FAC72B46]
Track 10 cannot be verified as accurate (confidence 7) [03339A40], AccurateRip returned [AF78F9EF]
Track 11 cannot be verified as accurate (confidence 7) [0250665D], AccurateRip returned [FB1413E4]
Track 12 cannot be verified as accurate (confidence 7) [8CC03E6C], AccurateRip returned [0FE8A1D1]
Track 13 cannot be verified as accurate (confidence 7) [EE2E386C], AccurateRip returned [ADB0668A]
Track 14 cannot be verified as accurate (confidence 7) [03244BA7], AccurateRip returned [F5A261AD]
Track 15 cannot be verified as accurate (confidence 7) [53DA004A], AccurateRip returned [7EE59155]
Track 16 cannot be verified as accurate (confidence 7) [66E8AB0E], AccurateRip returned [7180A820]

No tracks could be verified as accurate
You may have a different pressing from the one(s) in the database

End of status report

[CUETools log; Date: 18.01.2015 17:20:56; Version: 2.1.4]
[CTDB TOCID: Yq.wCvHWitaHYKddFjFVeUqxzp8-] found.
Track | CTDB Status
1 | (13/13) Accurately ripped
2 | (13/13) Accurately ripped
3 | (13/13) Accurately ripped
4 | (13/13) Accurately ripped
5 | (13/13) Accurately ripped
6 | (12/13) Accurately ripped
7 | (13/13) Accurately ripped
8 | (13/13) Accurately ripped
9 | (13/13) Accurately ripped
10 | (13/13) Accurately ripped
11 | (13/13) Accurately ripped
12 | (13/13) Accurately ripped
13 | (13/13) Accurately ripped
14 | (13/13) Accurately ripped
15 | (13/13) Accurately ripped
16 | (13/13) Accurately ripped
[AccurateRip ID: 0018d5df-0128dcfd-d909a210] found.
Track [ CRC | V2 ] Status
01 [d47edbc1|75695b24] (05+08/65) Accurately ripped
02 [55e431e7|a76d43a1] (05+08/63) Accurately ripped
03 [5bce1597|4bc578ec] (05+08/65) Accurately ripped
04 [9039c96d|28b10f96] (05+08/63) Accurately ripped
05 [a8a67dd9|66a16c71] (05+08/65) Accurately ripped
06 [cc8d7585|7a8466c4] (05+08/64) Accurately ripped
07 [97986c24|e18e0ca6] (05+08/64) Accurately ripped
08 [a322dedb|5a06f2b0] (05+08/63) Accurately ripped
09 [3e68f934|5b0950c7] (05+08/68) Accurately ripped
10 [03339a40|c25c2044] (05+08/65) Accurately ripped
11 [0250665d|e3b4dbc3] (05+08/63) Accurately ripped
12 [8cc03e6c|0a5a424c] (05+08/65) Accurately ripped
13 [ee2e386c|03c01b4b] (05+07/62) Accurately ripped
14 [03244ba7|97a824f7] (05+07/65) Accurately ripped
15 [53da004a|7bb315ba] (05+07/63) Accurately ripped
16 [66e8ab0e|ab48be36] (05+08/65) Accurately ripped
Offsetted by 1508:
01 [187f413f] (25/65) Accurately ripped
02 [6ae7cdc6] (23/63) Accurately ripped
03 [0f997fb0] (25/65) Accurately ripped
04 [78d6fcac] (23/63) Accurately ripped
05 [119513da] (25/65) Accurately ripped
06 [48e87bc6] (25/64) Accurately ripped
07 [3c4d6cd2] (25/64) Accurately ripped
08 [ab946fac] (23/63) Accurately ripped
09 [fac72b46] (26/68) Accurately ripped
10 [af78f9ef] (25/65) Accurately ripped
11 [fb1413e4] (23/63) Accurately ripped
12 [0fe8a1d1] (25/65) Accurately ripped
13 [adb0668a] (23/62) Accurately ripped
14 [f5a261ad] (26/65) Accurately ripped
15 [7ee59155] (24/63) Accurately ripped
16 [7180a820] (25/65) Accurately ripped
Offsetted by -364:
01 [6a321f78] (00/65) No match (V2 was not tested)
02 [12052afd] (00/63) No match (V2 was not tested)
03 [feccca6e] (00/65) No match (V2 was not tested)
04 [7b25beaa] (00/63) No match (V2 was not tested)
05 [aa263bab] (00/65) No match (V2 was not tested)
06 [017cf741] (00/64) No match (V2 was not tested)
07 [8b25ac01] (00/64) No match (V2 was not tested)
08 [1e7e001c] (00/63) No match (V2 was not tested)
09 [429ad467] (02/68) Accurately ripped
10 [eec04097] (00/65) No match (V2 was not tested)
11 [3258317b] (00/63) No match (V2 was not tested)
12 [379050c9] (00/65) No match (V2 was not tested)
13 [28ba3a21] (00/62) No match (V2 was not tested)
14 [834fedc8] (00/65) No match (V2 was not tested)
15 [760e6a72] (00/63) No match (V2 was not tested)
16 [793c6f06] (00/65) No match (V2 was not tested)

Track Peak [ CRC32 ] [W/O NULL] [ LOG ]
-- 99,8 [922ABB57] [3BFC0E22] CRC32
01 92,8 [76347CE8] [437F70C1]
02 74,8 [47042170] [094A8FD8]
03 97,1 [42C5ACAD] [6066425E]
04 72,4 [76BC2290] [15D1BC1C]
05 90,5 [2D675FC3] [1DE50D49]
06 97,1 [4B21CC9E] [74D70D50]
07 71,2 [CDE512B9] [228E73A3]
08 64,8 [A7985CBE] [21DBA98D]
09 99,8 [DD2731BE] [0F1AA652]
10 85,3 [8405FBB7] [91B971D5]
11 73,2 [F9826ADB] [E8267267]
12 90,4 [C915E03F] [83994B9A]
13 92,6 [B4D5EEE3] [FF25F8FA]
14 83,4 [796EF28E] [F31504A5]
15 80,8 [F1785F6D] [23DBF4DF]
16 93,3 [2F1D3FF0] [4A23F28B]

foobar2000 1.2 / Dynamic Range Meter 1.1.1
log date: 2015-01-18 17:39:29

--------------------------------------------------------------------------------
Analyzed: Anne Dudley / Buster the Original Soundtrack
--------------------------------------------------------------------------------

DR Peak RMS Duration Track
--------------------------------------------------------------------------------
DR9 -2.52 dB -16.85 dB 0:24 02-incidental link-/ Gardening By The Book
DR10 -2.80 dB -16.13 dB 1:30 04-incidental link-/ ...and I Love Her
DR12 -0.25 dB -15.93 dB 7:30 06-The Robbery
DR9 -3.76 dB -16.17 dB 0:14 08-incidental link-/ Alone in Acapulco
DR9 -2.70 dB -18.57 dB 0:33 11-incidental link-/ Thoughts of Home
DR11 -0.66 dB -16.36 dB 1:02 13-incidental link-/ The Good Life
DR11 -1.84 dB -19.46 dB 1:54 15-Will You Still Be Waiting
--------------------------------------------------------------------------------

Number of tracks: 7
Official DR value: DR10

Samplerate: 44100 Hz
Channels: 2
Bits per sample: 16
Bitrate: 843 kbps
Codec: FLAC
================================================================================

--------------------------------------------------------------------------------
Statistics for: 12-I Just Don't Know What To Do With Myself
Number of samples: 8029140
Duration: 3:02
--------------------------------------------------------------------------------

Left Right

Peak Value: -1.24 dB --- -0.88 dB
Avg RMS: -15.07 dB --- -14.74 dB
DR channel: 10.53 dB --- 10.67 dB
--------------------------------------------------------------------------------

Official DR Value: DR11

Samplerate: 44100 Hz
Channels: 2
Bits per sample: 16
Bitrate: 843 kbps
Codec: FLAC
================================================================================
--------------------------------------------------------------------------------
Analyzed: Four Tops / Buster the Original Soundtrack (1)
Gerry & The Pacemakers / Buster the Original Soundtrack (2)
--------------------------------------------------------------------------------

DR Peak RMS Duration Track
--------------------------------------------------------------------------------
DR12 -0.01 dB -14.23 dB 4:11 09-Loco in Acapulco
DR12 -1.37 dB -14.77 dB 1:53 10-How Do You Do It?
--------------------------------------------------------------------------------

Number of tracks: 2
Official DR value: DR12

Samplerate: 44100 Hz
Channels: 2
Bits per sample: 16
Bitrate: 843 kbps
Codec: FLAC
================================================================================

--------------------------------------------------------------------------------
Analyzed: Phil Collins / Buster the Original Soundtrack
--------------------------------------------------------------------------------

DR Peak RMS Duration Track
--------------------------------------------------------------------------------
DR13 -0.65 dB -16.33 dB 3:25 01-Two Hearts
DR12 -0.86 dB -15.16 dB 3:54 05-Big Noise
DR12 -0.60 dB -17.56 dB 3:30 16-Groovy Kind of Love
--------------------------------------------------------------------------------

Number of tracks: 3
Official DR value: DR13

Samplerate: 44100 Hz
Channels: 2
Bits per sample: 16
Bitrate: 843 kbps
Codec: FLAC
================================================================================

--------------------------------------------------------------------------------
Statistics for: 07-I Got You Babe
Number of samples: 8337840
Duration: 3:09
--------------------------------------------------------------------------------

Left Right

Peak Value: -3.17 dB --- -2.95 dB
Avg RMS: -21.22 dB --- -18.99 dB
DR channel: 15.24 dB --- 12.48 dB
--------------------------------------------------------------------------------

Official DR Value: DR14

Samplerate: 44100 Hz
Channels: 2
Bits per sample: 16
Bitrate: 843 kbps
Codec: FLAC
================================================================================
--------------------------------------------------------------------------------
Analyzed: The Hollies / Buster the Original Soundtrack (1)
The Searchers / Buster the Original Soundtrack (2)
--------------------------------------------------------------------------------

DR Peak RMS Duration Track
--------------------------------------------------------------------------------
DR11 -0.25 dB -14.20 dB 2:28 03-Just One Look
DR10 -1.57 dB -13.16 dB 2:26 14-Sweets for My Sweet
--------------------------------------------------------------------------------

Number of tracks: 2
Official DR value: DR11

Samplerate: 44100 Hz
Channels: 2
Bits per sample: 16
Bitrate: 843 kbps
Codec: FLAC
================================================================================


All thanks to original releaser




Password: designol