Marvel’s The Defenders | Pretty Cure | Download

Miklos Rozsa - Fedora: Original Motion Picture Soundtrack (1978) Limited Edition 2014


Miklós Rózsa - Fedora: Original Motion Picture Soundtrack (1978) Limited Edition 2014
EAC | FLAC | Image (Cue&Log) ~ 323 Mb (incl 5%) | Mp3 (CBR320) ~ 150 Mb (incl 5%) | Scans included
Genre: Soundtrack, Score | Label: Varèse Encore | # VCL 1114 1154 | Time: 00:56:39

Here’s a Varèse Encore release of another very early title from our CD Club. Miklós Rózsa’s luminous Fedora was actually just the second title released from the original Varèse CD Club, way back in 1989! It’s been out of print, expensive and hard to get ever since. But now the timing is perfect. The film itself was just released on Blu-ray a few weeks ago, allowing a new generation to discover it. We are so excited about making this late-Rózsa classic available once again.

As a special bonus, this Encore Edition also retains the Crisis Guitar Suite, performed by Daryl Denning.

In Fedora (1978), Billy Wilder approaches Hollywood stardom in the same fashion as he did in Sunset Boulevard--with cynicism, regret, understanding, and awe. Fedora (Marthe Keller) is film's most intriguing movie queen. Rumored to be well into her sixties, the actress has remained a starlet for over four decades--retaining youth and radiance despite her advancing years. The mystery behind her numinous persona has never ceased to captivate audiences. Even now, as she lives in seclusion on the beautiful Greek island of Corfu, the public buzzes for her to return to the screen. When producer Barry Detweiler (William Holden) travels to Corfu, staking his faltering career on Fedora's return, he discovers the actress's tragic secret. Fedora's eternal loveliness may not be the result of defying her age, but of concealing her youth.









Tracklist:

01. Prelude And Fedora Appears (01:19)
02. The Island (02:51)
03. Dejected (01:09)
04. Rain (04:37)
05. Souvenir De Corfu (01:48)
06. Always The Actress (04:23)
07. Discovered (01:33)
08. Disappointed (01:04)
09. No Escape (01:56)
10. The Oscar (04:04)
11. Search In The Villa (07:09)
12. Fedora's Daughter (01:22)
13. Butcher! (03:09)
14. Star Mother (01:19)
15. Metamorphosis (00:54)
16. Deception (03:05)
17. Escape (02:31)
18. Finale (01:36)

Crisis, Suite For Guitar:

19. Introduction (01:19)
20. March Of The Revolution (01:05)
21. Vilage Square (04:00)
22. Fandango (01:33)
23. La Carta De Rehen (01:28)
24. Finale (01:12)


Exact Audio Copy V1.0 beta 3 from 29. August 2011

EAC extraction logfile from 13. December 2014, 15:04

Miklos Rozsa / Fedora / Crisis

Used drive : TSSTcorpCDDVDW SH-S202H Adapter: 0 ID: 0

Read mode : Secure
Utilize accurate stream : Yes
Defeat audio cache : Yes
Make use of C2 pointers : No

Read offset correction : 6
Overread into Lead-In and Lead-Out : No
Fill up missing offset samples with silence : Yes
Delete leading and trailing silent blocks : No
Null samples used in CRC calculations : Yes
Used interface : Native Win32 interface for Win NT & 2000

Used output format : Internal WAV Routines
Sample format : 44.100 Hz; 16 Bit; Stereo


TOC of the extracted CD

Track | Start | Length | Start sector | End sector
---------------------------------------------------------
1 | 0:00.00 | 1:19.35 | 0 | 5959
2 | 1:19.35 | 2:51.70 | 5960 | 18854
3 | 4:11.30 | 1:09.22 | 18855 | 24051
4 | 5:20.52 | 4:37.57 | 24052 | 44883
5 | 9:58.34 | 1:48.44 | 44884 | 53027
6 | 11:47.03 | 4:23.04 | 53028 | 72756
7 | 16:10.07 | 1:33.47 | 72757 | 79778
8 | 17:43.54 | 1:04.64 | 79779 | 84642
9 | 18:48.43 | 1:56.28 | 84643 | 93370
10 | 20:44.71 | 4:04.22 | 93371 | 111692
11 | 24:49.18 | 7:09.41 | 111693 | 143908
12 | 31:58.59 | 1:22.29 | 143909 | 150087
13 | 33:21.13 | 3:09.59 | 150088 | 164321
14 | 36:30.72 | 1:19.62 | 164322 | 170308
15 | 37:50.59 | 0:54.16 | 170309 | 174374
16 | 38:45.00 | 3:05.01 | 174375 | 188250
17 | 41:50.01 | 2:31.25 | 188251 | 199600
18 | 44:21.26 | 1:36.64 | 199601 | 206864
19 | 45:58.15 | 1:19.47 | 206865 | 212836
20 | 47:17.62 | 1:05.13 | 212837 | 217724
21 | 48:23.00 | 4:00.40 | 217725 | 235764
22 | 52:23.40 | 1:33.70 | 235765 | 242809
23 | 53:57.35 | 1:28.43 | 242810 | 249452
24 | 55:26.03 | 1:12.63 | 249453 | 254915


Range status and errors

Selected range

Filename D:Miklos Rozsa - Fedora - CrisisMiklos Rozsa - Fedora - Crisis.wav

Peak level 98.8 %
Extraction speed 7.3 X
Range quality 100.0 %
Test CRC AD58A119
Copy CRC AD58A119
Copy OK

No errors occurred


AccurateRip summary

Track 1 not present in database
Track 2 not present in database
Track 3 not present in database
Track 4 not present in database
Track 5 not present in database
Track 6 not present in database
Track 7 not present in database
Track 8 not present in database
Track 9 not present in database
Track 10 not present in database
Track 11 not present in database
Track 12 not present in database
Track 13 not present in database
Track 14 not present in database
Track 15 not present in database
Track 16 not present in database
Track 17 not present in database
Track 18 not present in database
Track 19 not present in database
Track 20 not present in database
Track 21 not present in database
Track 22 not present in database
Track 23 not present in database
Track 24 not present in database

None of the tracks are present in the AccurateRip database

End of status report

==== Log checksum 5E4477A26FD6B5D0D2D97BBACBD9D17C9291DE182C2D2058D767FE2A1BCAF69A ====

[CUETools log; Date: 15.01.2015 15:50:58; Version: 2.1.4]
[CTDB TOCID: L7Bs7fY.GILOuffk3VN30EEeQjs-] found.
Track | CTDB Status
1 | (3/3) Accurately ripped
2 | (3/3) Accurately ripped
3 | (3/3) Accurately ripped
4 | (3/3) Accurately ripped
5 | (3/3) Accurately ripped
6 | (3/3) Accurately ripped
7 | (3/3) Accurately ripped
8 | (3/3) Accurately ripped
9 | (3/3) Accurately ripped
10 | (3/3) Accurately ripped
11 | (3/3) Accurately ripped
12 | (3/3) Accurately ripped
13 | (3/3) Accurately ripped
14 | (3/3) Accurately ripped
15 | (3/3) Accurately ripped
16 | (3/3) Accurately ripped
17 | (3/3) Accurately ripped
18 | (3/3) Accurately ripped
19 | (3/3) Accurately ripped
20 | (3/3) Accurately ripped
21 | (3/3) Accurately ripped
22 | (3/3) Accurately ripped
23 | (3/3) Accurately ripped
24 | (3/3) Accurately ripped
[AccurateRip ID: 0033e238-03810035-2a0d4618] found.
Track [ CRC | V2 ] Status
01 [212139e6|f42d708f] (0+1/1) Accurately ripped
02 [9d369ec7|00d7069e] (0+1/1) Accurately ripped
03 [4a5e2b1a|7551b246] (0+1/1) Accurately ripped
04 [a7b1c26b|9e2bcc63] (0+1/1) Accurately ripped
05 [d13b33f0|30782b4a] (0+1/1) Accurately ripped
06 [34d0d3d9|180fd5c6] (0+1/1) Accurately ripped
07 [5a1d5efb|947006fa] (0+1/1) Accurately ripped
08 [91514623|dd41508b] (0+1/1) Accurately ripped
09 [64110df8|35b1a5a2] (0+1/1) Accurately ripped
10 [1defe4c7|453d971a] (0+1/1) Accurately ripped
11 [003fc4e4|74174348] (0+1/1) Accurately ripped
12 [7b3dba84|187a1762] (0+1/1) Accurately ripped
13 [b658ef7a|229aef0f] (0+1/1) Accurately ripped
14 [71badbb8|043ad4a3] (0+1/1) Accurately ripped
15 [d7026165|d2009216] (0+1/1) Accurately ripped
16 [77569449|c899d82e] (0+1/1) Accurately ripped
17 [78a3398c|8fa21c43] (0+1/1) Accurately ripped
18 [45148ec4|c99dd9d8] (0+1/1) Accurately ripped
19 [acfebba2|294fba13] (0+1/1) Accurately ripped
20 [6c794077|f1bc1c5e] (0+1/1) Accurately ripped
21 [b6efc171|c29cdff8] (0+1/1) Accurately ripped
22 [4bb444f3|790e8b05] (0+1/1) Accurately ripped
23 [c82d7b62|24fde148] (0+1/1) Accurately ripped
24 [21d0493c|8d929580] (0+1/1) Accurately ripped

Track Peak [ CRC32 ] [W/O NULL] [ LOG ]
-- 98,8 [AD58A119] [F5D81ABB] CRC32
01 98,8 [9279FCBC] [C046866B]
02 77,2 [D1C626F9] [50ACF581]
03 87,3 [D2570256] [1DF16C8D]
04 92,7 [6FED37D1] [1F074D01]
05 76,2 [5736C48E] [6D2E1A05]
06 98,8 [D46BB17E] [CFD48ECB]
07 89,3 [272A698C] [1EE0FDB7]
08 83,5 [4CBEFCE9] [3DDAF2D0]
09 98,8 [3580646B] [330B3A8E]
10 98,8 [2349004C] [B52F1B5C]
11 98,8 [EE67B9BF] [EE0031F2]
12 78,9 [2FD68240] [0F0FDDB3]
13 98,8 [A11088F6] [E669560A]
14 93,8 [652F7FDE] [33E6FBD1]
15 77,4 [AC8E28D8] [0DF4A5F7]
16 55,9 [D4195034] [9037A6C6]
17 86,8 [44E2B150] [DFA1504C]
18 98,8 [7A11B408] [581EA86A]
19 88,2 [8431E69D] [A7042D52]
20 92,2 [4EAC61B4] [C782408A]
21 87,5 [AF55C43F] [44777BF6]
22 81,4 [DB6DD856] [0034150B]
23 37,3 [D4ADECB9] [E2B9DD82]
24 79,1 [E943D7A5] [69437C3D]

foobar2000 1.2 / Dynamic Range Meter 1.1.1
log date: 2015-01-15 15:54:49

--------------------------------------------------------------------------------
Analyzed: Darryl Denning / Fedora / Crisis
--------------------------------------------------------------------------------

DR Peak RMS Duration Track
--------------------------------------------------------------------------------
DR14 -1.08 dB -18.66 dB 1:20 19-Introduction
DR14 -0.70 dB -18.76 dB 1:05 20-March Of The Revolution
DR18 -1.15 dB -23.85 dB 4:01 21-Vilage Square
DR13 -1.78 dB -19.14 dB 1:34 22-Fandango
DR12 -8.55 dB -27.38 dB 1:29 23-La Carta De Rehen
DR13 -2.03 dB -19.28 dB 1:13 24-Finale
--------------------------------------------------------------------------------

Number of tracks: 6
Official DR value: DR14

Samplerate: 44100 Hz
Channels: 2
Bits per sample: 16
Bitrate: 728 kbps
Codec: FLAC
================================================================================

--------------------------------------------------------------------------------
Analyzed: Miklos Rozsa / Fedora / Crisis
--------------------------------------------------------------------------------

DR Peak RMS Duration Track
--------------------------------------------------------------------------------
DR10 -0.10 dB -17.11 dB 1:19 01-Prelude And Fedora Appears
DR11 -2.25 dB -17.65 dB 2:52 02-The Island
DR10 -1.18 dB -14.39 dB 1:09 03-Dejected
DR11 -0.65 dB -16.48 dB 4:38 04-Rain
DR10 -2.35 dB -16.91 dB 1:49 05-Souvenir De Corfu
DR10 -0.10 dB -15.77 dB 4:23 06-Always The Actress
DR10 -0.97 dB -15.57 dB 1:34 07-Discovered
DR10 -1.56 dB -17.07 dB 1:05 08-Disappointed
DR9 -0.10 dB -12.99 dB 1:56 09-No Escape
DR11 -0.10 dB -15.11 dB 4:04 10-The Oscar
DR11 -0.10 dB -15.84 dB 7:10 11-Search In The Villa
DR10 -2.05 dB -17.64 dB 1:22 12-Fedora's Daughter
DR9 -0.10 dB -12.67 dB 3:10 13-Butcher!
DR10 -0.55 dB -15.76 dB 1:20 14-Star Mother
DR11 -2.22 dB -18.23 dB 0:54 15-Metamorphosis
DR11 -5.04 dB -20.01 dB 3:05 16-Deception
DR10 -1.22 dB -15.00 dB 2:31 17-Escape
DR9 -0.10 dB -11.72 dB 1:37 18-Finale
--------------------------------------------------------------------------------

Number of tracks: 18
Official DR value: DR10

Samplerate: 44100 Hz
Channels: 2
Bits per sample: 16
Bitrate: 728 kbps
Codec: FLAC
================================================================================



All thanks to original releaser - Composer's fan











Password: designol