Wentworth | Eps1 The Hornets Nest HD-720p | Lauren Santo Domingo

Вход в свой аккаунт

Или войдите через соц. сети

Barbra Streisand - Yentl: Original Motion Picture Soundtrack (1983) Music Composed by Michel Legrand


Barbra Streisand - Yentl: Original Motion Picture Soundtrack (1983) Music Composed by Michel Legrand
EAC | FLAC | Tracks (Cue&Log) ~ 280 Mb (incl 5%) | Mp3 (CBR320) ~ 131 Mb (incl 5%) | Scans included
Genre: Soundtrack, Adult Contemporary, Standards, Traditional Pop | Label: Columbia | # CK 39152 | Time: 00:47:21

“ Billed as both a Barbra Streisand album and as an original motion picture soundtrack, Yentl contains the songs, sung by Streisand and written by Michel Legrand and Alan and Marilyn Bergman, that the character played by Streisand sings as internal monologues in the film, sometimes with spoken dialogue interspersed. (The album is filled out by "studio versions" of two of the songs, "The Way He Makes Me Feel" and "No Matter What Happens," played on contemporary electronic instruments, rather than in the orchestral settings used for the rest of the songs.) With such a thematic base, the music has an unusual consistency, and written specifically for Streisand, it makes use of her emotional expressiveness, phrasing, and timing as a singer. But it was also written as a complement to the film and on its own comes across as a group of isolated musical plot highlights rather than as a coherent song cycle. (Yentl won an Academy Award for Best Original Song Score.)

Review by William Ruhlmann, Allmusic.com
”













Tracklist:

01. Where Is It Written? (04:55)
02. Papa, Can You Hear Me? (03:34)
03. This Is One Of Those Moments (04:10)
04. No Wonder (Part One) (02:31)
05. The Way He Makes Me Feel (03:47)
06. No Wonder (Part Two) (03:20)
07. Tomorrow Night (04:44)
08. Will Someone Ever Look At Me That Way? (03:07)
09. No Matter What Happens (04:05)
10. No Wonder (Reprise) (01:07)
11. A Piece Of Sky (04:24)
12. The Way He Makes Me Feel (Studio Version) (04:13)
13. No Matter What Happens (Studio Version) (03:17)


Exact Audio Copy V0.99 prebeta 4 from 23. January 2008

EAC extraction logfile from 5. October 2009, 22:40

Barbra Streisand / Yentl

Used drive : SONY DVD RW DRU-845S Adapter: 3 ID: 0

Read mode : Secure
Utilize accurate stream : Yes
Defeat audio cache : Yes
Make use of C2 pointers : No

Read offset correction : 6
Overread into Lead-In and Lead-Out : No
Fill up missing offset samples with silence : Yes
Delete leading and trailing silent blocks : No
Null samples used in CRC calculations : Yes
Used interface : Native Win32 interface for Win NT & 2000
Gap handling : Appended to previous track

Used output format : User Defined Encoder
Selected bitrate : 128 kBit/s
Quality : High
Add ID3 tag : No
Command line compressor : C:Program Files (x86)Exact Audio CopyFlacflac.exe
Additional command line options : -V -8 -T "artist=%a" -T "title=%t" -T "album=%g" -T "date=%y" -T "tracknumber=%n" -T "genre=%m" %s


TOC of the extracted CD

Track | Start | Length | Start sector | End sector
---------------------------------------------------------
1 | 0:00.00 | 4:55.65 | 0 | 22189
2 | 4:55.65 | 3:34.27 | 22190 | 38266
3 | 8:30.17 | 4:10.25 | 38267 | 57041
4 | 12:40.42 | 2:31.63 | 57042 | 68429
5 | 15:12.30 | 3:47.27 | 68430 | 85481
6 | 18:59.57 | 3:20.38 | 85482 | 100519
7 | 22:20.20 | 4:44.72 | 100520 | 121891
8 | 27:05.17 | 3:07.58 | 121892 | 135974
9 | 30:13.00 | 4:05.25 | 135975 | 154374
10 | 34:18.25 | 1:07.20 | 154375 | 159419
11 | 35:25.45 | 4:24.67 | 159420 | 179286
12 | 39:50.37 | 4:13.30 | 179287 | 198291
13 | 44:03.67 | 3:17.30 | 198292 | 213096


Track 1

Filename D:EACripsBarbra Streisand - 1983 - Yentl1 - Where is it written .wav

Pre-gap length 0:00:02.00

Peak level 86.7 %
Track quality 99.9 %
Test CRC B080E316
Copy CRC B080E316
Accurately ripped (confidence 3) [A310A553]
Copy OK

Track 2

Filename D:EACripsBarbra Streisand - 1983 - Yentl2 - Papa, can you hear me .wav

Pre-gap length 0:00:03.37

Peak level 100.0 %
Track quality 100.0 %
Test CRC 3AEBB9F6
Copy CRC 3AEBB9F6
Accurately ripped (confidence 3) [CE2CF86B]
Copy OK

Track 3

Filename D:EACripsBarbra Streisand - 1983 - Yentl3 - This is one of those moments.wav

Pre-gap length 0:00:04.82

Peak level 100.0 %
Track quality 100.0 %
Test CRC DD360AEB
Copy CRC DD360AEB
Accurately ripped (confidence 3) [C7A7ECB8]
Copy OK

Track 4

Filename D:EACripsBarbra Streisand - 1983 - Yentl4 - No wonder (part one).wav

Pre-gap length 0:00:04.16

Peak level 93.0 %
Track quality 100.0 %
Test CRC 49ACF2E1
Copy CRC 49ACF2E1
Accurately ripped (confidence 3) [7E32B734]
Copy OK

Track 5

Filename D:EACripsBarbra Streisand - 1983 - Yentl5 - The way he makes me feel.wav

Pre-gap length 0:00:03.04

Peak level 61.3 %
Track quality 100.0 %
Test CRC B538F79E
Copy CRC B538F79E
Accurately ripped (confidence 3) [3E0195EB]
Copy OK

Track 6

Filename D:EACripsBarbra Streisand - 1983 - Yentl6 - No wonder (part two).wav

Pre-gap length 0:00:03.06

Peak level 69.6 %
Track quality 100.0 %
Test CRC 30BC7D40
Copy CRC 30BC7D40
Accurately ripped (confidence 3) [3020871E]
Copy OK

Track 7

Filename D:EACripsBarbra Streisand - 1983 - Yentl7 - Tomorrow night.wav

Pre-gap length 0:00:01.70

Peak level 98.1 %
Track quality 100.0 %
Test CRC B535C070
Copy CRC B535C070
Accurately ripped (confidence 3) [51C10E68]
Copy OK

Track 8

Filename D:EACripsBarbra Streisand - 1983 - Yentl8 - Will someone ever look at me that way .wav

Pre-gap length 0:00:01.76

Peak level 95.6 %
Track quality 100.0 %
Test CRC A9D736A2
Copy CRC A9D736A2
Accurately ripped (confidence 3) [EABCE870]
Copy OK

Track 9

Filename D:EACripsBarbra Streisand - 1983 - Yentl9 - No matter what happens.wav

Pre-gap length 0:00:04.40

Peak level 86.9 %
Track quality 100.0 %
Test CRC D9407DFA
Copy CRC D9407DFA
Accurately ripped (confidence 3) [5B2CD069]
Copy OK

Track 10

Filename D:EACripsBarbra Streisand - 1983 - Yentl10 - No wonder (reprise).wav

Pre-gap length 0:00:02.77

Peak level 62.2 %
Track quality 100.0 %
Test CRC AFEEE450
Copy CRC AFEEE450
Accurately ripped (confidence 3) [14D3D784]
Copy OK

Track 11

Filename D:EACripsBarbra Streisand - 1983 - Yentl11 - A piece of sky.wav

Pre-gap length 0:00:01.70

Peak level 88.9 %
Track quality 100.0 %
Test CRC 1F21E4CD
Copy CRC 1F21E4CD
Accurately ripped (confidence 2) [1F516AD3]
Copy OK

Track 12

Filename D:EACripsBarbra Streisand - 1983 - Yentl12 - The way he makes me feel (studio version).wav

Pre-gap length 0:00:04.76

Peak level 75.7 %
Track quality 100.0 %
Test CRC 9CD5D71B
Copy CRC 9CD5D71B
Accurately ripped (confidence 3) [66179DB0]
Copy OK

Track 13

Filename D:EACripsBarbra Streisand - 1983 - Yentl13 - No matter what happens (studio version).wav

Pre-gap length 0:00:04.13

Peak level 78.9 %
Track quality 100.0 %
Test CRC 20DE5B35
Copy CRC 20DE5B35
Accurately ripped (confidence 3) [E6EA8322]
Copy OK


All tracks accurately ripped

No errors occurred

End of status report

foobar2000 1.2 / Dynamic Range Meter 1.1.1
log date: 2015-01-12 19:37:43

--------------------------------------------------------------------------------
Analyzed: Barbra Streisand / Yentl
--------------------------------------------------------------------------------

DR Peak RMS Duration Track
--------------------------------------------------------------------------------
DR12 -1.23 dB -17.74 dB 4:56 01-Where is it written?
DR11 0.00 dB -16.99 dB 3:34 02-Papa, can you hear me?
DR12 0.00 dB -15.64 dB 4:10 03-This is one of those moments
DR14 -0.63 dB -19.83 dB 2:32 04-No wonder (part one)
DR11 -4.25 dB -19.28 dB 3:47 05-The way he makes me feel
DR12 -3.14 dB -19.30 dB 3:21 06-No wonder (part two)
DR12 -0.17 dB -16.45 dB 4:45 07-Tomorrow night
DR12 -0.38 dB -18.00 dB 3:08 08-Will someone ever look at me that way?
DR11 -1.21 dB -17.67 dB 4:05 09-No matter what happens
DR9 -4.12 dB -20.04 dB 1:07 10-No wonder (reprise)
DR10 -1.01 dB -15.47 dB 4:25 11-A piece of sky
DR12 -2.41 dB -18.55 dB 4:13 12-The way he makes me feel (studio version)
DR10 -2.05 dB -15.85 dB 3:17 13-No matter what happens (studio version)
--------------------------------------------------------------------------------

Number of tracks: 13
Official DR value: DR11

Samplerate: 44100 Hz
Channels: 2
Bits per sample: 16
Bitrate: 837 kbps
Codec: FLAC
================================================================================



All thanks to original releaser - kegorogers








Film at Avaxhome:




Password: designol