Watch movie | Yoku Wakaru Gendai Mahou | Trinitee Stokes

Chitty Chitty Bang Bang: Original MGM Motion Picture Soundtrack (1968) 2CD Limited Edition 2011


Chitty Chitty Bang Bang: Original MGM Motion Picture Soundtrack (1968) 2CD Limited Edition 2011
EAC | FLAC | Image (Cue&Log) ~ 728 Mb (incl 5%) | Mp3 (CBR320) ~ 343 Mb (incl 5%) | Scans included
Genre: Soundtrack, Score | Label: Kritzerland | # KR 20020-5 | Time: 01:58:58

Limited edition reissue of the 1968 soundtrack to the Disney classic about a magical car nicknamed Chitty Chitty Bang Bang offers a grand total of 50 tracks. The first disc expands the number of songs performed by Dick Van Dyke and Sally Anne Howes to include unobtrusive clips of dialogue from the film, and all of the songs that appeared in the movie are now included. The second disc collects demos, which are entertaining, as well. Many versions of the Chitty Chitty Bang Bang [Original Motion Picture Soundtrack] have been released over the years -- some great, some not so great -- but this is by far the biggest and best.


What’s really fantasmagorical is that the man who gave the world its most well known spy, the one and only James Bond, also gave the world its most delightful magical car, Chitty Chitty Bang Bang (a classic Ian Fleming title if ever there was one). In 1968, Albert R. Broccoli, co-producer of the Bond films, produced a lavish musical film version, starring Dick Van Dyke as inventor Caractacus Potts, Sally Ann Howes as Truly Scrumptious, and a host of fine character actors – Lionel Jeffries, Benny Hill, Gert Frobe (Goldfinger himself), Robert Helpmann, Anna Quayle, Desmond Llewelyn (another Bond regular, Q), along with Adrian Hall and Heather Ripley as Caractacus’ children, Jeremy and Jemima. The screenplay was by another wonderful, fanciful author, Roald Dahl (Charlie and the Chocolate Factory, James and the Giant Peach), along with Ken Hughes, with additional dialogue by Richard Maibaum. Hughes also directed the film. Along for the ride were cameraman Christopher Challis, production designer and Bond regular Ken Adam, choreographers Marc Breaux and Dee Dee Wood (Mary Poppins) – and for the film’s most important element, its score, the tuneful, incredibly catchy songs by the team of Richard M. Sherman and Robert B. Sherman, also of Mary Poppins fame, with all the musical elements brought together by the brilliant Irwin Kostal.

While Chitty Chitty Bang Bang is a most magical car, the most magical thing in the film is, in fact, not the car but the songs by the Sherman Brothers. Richard M. and Robert B. had been writing for years at Disney, where they’d given the world one delightfully catchy song after another and then delivered their brilliant song score for Mary Poppins. They had a habit of being able to write a tune that was instantly hummable, tunes you simply could not get out of your head. And so it was with their songs for Chitty Chitty Bang Bang. The title song is one of those can’t get it out of your head things that they did so effortlessly, but the film is awash in great, tuneful songs, including “Truly Scrumptious,” “Toot Sweets,” “Me Ol’ Bamboo,” and the haunting “Hushabye Mountain” one of their most stunningly beautiful creations.

The Sherman Brothers have done it all – from iconic rock-and-roll (“You’re Sixteen, You’re Beautiful, and You’re Mine”), to their iconic “It’s A Small World,” and their song scores for Mary Poppins, The Jungle Book, The Happiest Millionaire and others, as well as Broadway with Over Here. And, of course, Mary Poppins is still playing on Broadway at the time of this writing. In fact, I’m quite certain there is a Sherman Brothers song being played or sung somewhere in the world at just about any given moment.

Chitty Chitty Bang Bang was originally released on LP on United Artists Records (the film was distributed by UA). As was usual back then, songs were truncated, the mixes were occasionally weird, and no underscore was used. There have been two previous CD releases – one on Ryko, who added dialogue snippets throughout the album, and then on Varese Sarabande (who omitted the dialogue snippets but basically used the Ryko master). For our Very Very Special Special edition, we went back to the first generation album master – there was, of course, no way to change the mix or the generous amount of reverb used, but our masterful mastering engineer, James Nelson, has worked as much magic as humanly possible to optimize the sound present on those original album masters. We’ve also included the film’s “Entr’Acte,” the original “Main Title” (much longer than the album version – presented here with sound effects, which are actually fun and sort of go with the music), and the film mix of the “Exit Music.” Following that, we give you the complete song and picture book album tracks, released concurrently with the soundtrack, and which features Richard M. Sherman himself singing, along with other vocalists, all conducted by Leroy Holmes. On CD 2, we’re very pleased to present all the film’s demo recordings by Richard Sherman. Finally, we had access to all of the playback tracks used during filming. These were all in mono and not that great sounding, but we’ve included several of them because they were material not included on the original album. These include another version of the title song (with quite a long instrumental), an instrumental called “The Vulgarian Anthem,” an instrumental of the “Chu-Chi Face” waltz, and a bit of the “Doll On A Music Box” not included on the original LP. Again, the sound on the playback tapes had distortion and not optimal sound, and mixes that were prepared specifically to be lip-synched to on set. But we thought they were of enough historical importance to include them.







Tracklist:

CD1:

01. Richard M. Sherman & Robert B. Sherman - Main Title (03:38)
02. Dick Van Dyke, Adrian Hall, Heather Ripley - You Two (02:52)
03. Dick Van Dyke, Sally Ann Howes,Adrian Hall, Heather Ripley, Cast - Toot Sweets (03:28)
04. Dick Van Dyke - Hushabye Mountain (01:55)
05. Dick Van Dyke - Me Ol' Bamboo (03:02)
06. Dick Van Dyke, Adrian Hall, Heather Ripley - Chitty Chitty Bang Bang (01:38)
07. Sally Ann Howes, Adrian Hall, Heather Ripley - Truly Scrumptious (03:25)
08. Dick Van Dyke, Sally Ann Howes, Adrian Hall, Heather Ripley - Chitty Chitty Bang Bang (Reprise) (01:11)
09. Richard M. Sherman & Robert B. Sherman - Entr'Acte (01:10)
10. Sally Ann Howes - Lovely, Lonely Man (02:54)
11. Lionel Jeffries - Posh (02:56)
12. Dick Van Dyke, Sally Ann Howes - Hushabye Mountain (Reprise) (01:22)
13. Lionel Jeffries, Inventors - The Roses Of Success (02:52)
14. Gert Frobe, Anna Quayle - Chu-Chi Face (02:20)
15. Dick Van Dyke, Sally Ann Howes - Doll On A Music Box & Truly Scrumptious (02:26)
16. Dick Van Dyke, Sally Ann Howes, Choir - Chitty Chitty Bang Bang Finale (01:17)
17. Richard M. Sherman & Robert B. Sherman - Exit Music (01:15)
18. Richard M. Sherman & Robert B. Sherman - Main Title (Film Version With Sound Effects) (06:33)
19. Dick Van Dyke, Adrian Hall, Heather Ripley - Chitty Chitty Bang Bang (Film Mix) (01:20)
20. Richard M. Sherman & Robert B. Sherman - Exit Music (Film Mix) (01:15)
21. Richard M. Sherman, Lola Fisher - Chitty Chitty Bang Bang (01:32)
22. Richard M. Sherman - You Two (03:18)
23. Richard M. Sherman & Robert B. Sherman - Toot Sweets (02:26)
24. Lola Fisher - Hushabye Mountain (02:24)
25. Richard M. Sherman - Me Ol' Bamboo (02:39)
26. Lola Fisher - Lovely, Lonely Man (03:26)
27. Richard M. Sherman - Posh (02:08)
28. Lola Fisher - Doll On A Music Box & Truly Scrumptious (03:25)
29. Richard M. Sherman, Lola Fisher - Chu-Chi Face (02:32)
30. Richard M. Sherman - The Roses Of Success (02:58)

CD2:

01. Richard M. Sherman - You Two (02:27)
02. Richard M. Sherman - Toot Sweets (02:00)
03. Richard M. Sherman - Chitty Chitty Bang Bang (01:55)
04. Richard M. Sherman - Truly Scrumptious (02:37)
05. Richard M. Sherman - Chitty Chitty Bang Bang 2 (01:59)
06. Richard M. Sherman - Lovely, Lonely Man (03:13)
07. Richard M. Sherman - Posh (01:33)
08. Richard M. Sherman - Hushabye Mountain (01:48)
09. Richard M. Sherman - The Vulgarin Anthem (01:12)
10. Richard M. Sherman - The Roses Of Success (02:38)
11. Richard M. Sherman - Chitty Chitty Bang Bang (Children's Reprise) (00:56)
12. Richard M. Sherman - Hushabye Mountain (Grandfather's Reprise) (01:33)
13. Richard M. Sherman - Fun Fair (01:54)
14. Richard M. Sherman - Lovely, Lonely Man / Chitty Chitty Bang Bang Finale (02:51)
15. Richard M. Sherman & Robert B. Sherman - Chitty Chitty Bang Bang 1 (01:37)
16. Richard M. Sherman & Robert B. Sherman - Chitty Chitty Bang Bang 2 (01:11)
17. Richard M. Sherman & Robert B. Sherman - Chitty Chitty Bang Bang 3 (01:41)
18. Richard M. Sherman & Robert B. Sherman - The Vulgarin Anthem (00:49)
19. Richard M. Sherman & Robert B. Sherman - Chu-Chi Face Waltz (01:35)
20. Richard M. Sherman & Robert B. Sherman - Doll On A Music Box Parts 1-3 (07:28)


Exact Audio Copy V1.0 beta 3 from 29. August 2011

EAC extraction logfile from 30. March 2013, 10:59

Richard M. Sherman & Robert B. Sherman / Chitty Chitty Bang Bang (Disc 1)

Used drive : TSSTcorpCDDVDW SH-S202H Adapter: 0 ID: 0

Read mode : Secure
Utilize accurate stream : Yes
Defeat audio cache : Yes
Make use of C2 pointers : No

Read offset correction : 6
Overread into Lead-In and Lead-Out : No
Fill up missing offset samples with silence : Yes
Delete leading and trailing silent blocks : No
Null samples used in CRC calculations : Yes
Used interface : Native Win32 interface for Win NT & 2000

Used output format : Internal WAV Routines
Sample format : 44.100 Hz; 16 Bit; Stereo


TOC of the extracted CD

Track | Start | Length | Start sector | End sector
---------------------------------------------------------
1 | 0:00.00 | 3:38.65 | 0 | 16414
2 | 3:38.65 | 2:52.25 | 16415 | 29339
3 | 6:31.15 | 3:28.10 | 29340 | 44949
4 | 9:59.25 | 1:55.27 | 44950 | 53601
5 | 11:54.52 | 3:02.17 | 53602 | 67268
6 | 14:56.69 | 1:38.55 | 67269 | 74673
7 | 16:35.49 | 3:25.45 | 74674 | 90093
8 | 20:01.19 | 1:11.52 | 90094 | 95470
9 | 21:12.71 | 1:10.10 | 95471 | 100730
10 | 22:23.06 | 2:54.14 | 100731 | 113794
11 | 25:17.20 | 2:56.05 | 113795 | 126999
12 | 28:13.25 | 1:22.27 | 127000 | 133176
13 | 29:35.52 | 2:52.50 | 133177 | 146126
14 | 32:28.27 | 2:20.48 | 146127 | 156674
15 | 34:49.00 | 2:26.40 | 156675 | 167664
16 | 37:15.40 | 1:17.42 | 167665 | 173481
17 | 38:33.07 | 1:15.26 | 173482 | 179132
18 | 39:48.33 | 6:33.16 | 179133 | 208623
19 | 46:21.49 | 1:20.14 | 208624 | 214637
20 | 47:41.63 | 1:15.50 | 214638 | 220312
21 | 48:57.38 | 1:32.30 | 220313 | 227242
22 | 50:29.68 | 3:18.73 | 227243 | 242165
23 | 53:48.66 | 2:26.09 | 242166 | 253124
24 | 56:15.00 | 2:24.18 | 253125 | 263942
25 | 58:39.18 | 2:39.08 | 263943 | 275875
26 | 61:18.26 | 3:26.69 | 275876 | 291394
27 | 64:45.20 | 2:08.71 | 291395 | 301065
28 | 66:54.16 | 3:25.47 | 301066 | 316487
29 | 70:19.63 | 2:32.35 | 316488 | 327922
30 | 72:52.23 | 2:58.52 | 327923 | 341324


Range status and errors

Selected range

Filename D:Richard M. Sherman & Robert B. Sherman - Chitty Chitty Bang BangRichard M. Sherman & Robert B. Sherman - Chitty Chitty Bang Bang (Disc 1).wav

Peak level 99.9 %
Extraction speed 8.2 X
Range quality 100.0 %
Test CRC 0AECE249
Copy CRC 0AECE249
Copy OK

No errors occurred


AccurateRip summary

Track 1 accurately ripped (confidence 3) [F3D51B7C] (AR v2)
Track 2 accurately ripped (confidence 3) [864B4F44] (AR v2)
Track 3 accurately ripped (confidence 3) [E3067245] (AR v2)
Track 4 accurately ripped (confidence 3) [7C9ACF27] (AR v2)
Track 5 accurately ripped (confidence 3) [25802979] (AR v2)
Track 6 accurately ripped (confidence 3) [F6B49415] (AR v2)
Track 7 accurately ripped (confidence 3) [F0902680] (AR v2)
Track 8 accurately ripped (confidence 3) [73EC16EB] (AR v2)
Track 9 accurately ripped (confidence 3) [80A7E09A] (AR v2)
Track 10 accurately ripped (confidence 3) [876F465F] (AR v2)
Track 11 accurately ripped (confidence 3) [5A3A62B7] (AR v2)
Track 12 accurately ripped (confidence 3) [5A313B61] (AR v2)
Track 13 accurately ripped (confidence 3) [5622A6E9] (AR v2)
Track 14 accurately ripped (confidence 3) [22647B83] (AR v2)
Track 15 accurately ripped (confidence 3) [7BFB1208] (AR v2)
Track 16 accurately ripped (confidence 3) [A208AC72] (AR v2)
Track 17 accurately ripped (confidence 3) [D098DC22] (AR v2)
Track 18 accurately ripped (confidence 3) [93CDC58C] (AR v2)
Track 19 accurately ripped (confidence 3) [ECF67046] (AR v2)
Track 20 accurately ripped (confidence 3) [AE200961] (AR v2)
Track 21 accurately ripped (confidence 3) [D4A7169E] (AR v2)
Track 22 accurately ripped (confidence 3) [317D6DBA] (AR v2)
Track 23 accurately ripped (confidence 3) [8B119340] (AR v2)
Track 24 accurately ripped (confidence 3) [51CDB70E] (AR v2)
Track 25 accurately ripped (confidence 3) [64BDFC41] (AR v2)
Track 26 accurately ripped (confidence 3) [CBE8A0BE] (AR v2)
Track 27 accurately ripped (confidence 3) [5285F8B3] (AR v2)
Track 28 accurately ripped (confidence 3) [BC263E14] (AR v2)
Track 29 accurately ripped (confidence 3) [257D2336] (AR v2)
Track 30 accurately ripped (confidence 3) [AC86F084] (AR v2)

All tracks accurately ripped

End of status report

==== Log checksum CE52D99C5904F5611E4050D58A3791628132C7EFE718DBD340B65F78CA9744A3 ====

foobar2000 1.2 / Dynamic Range Meter 1.1.1
log date: 2015-01-07 19:16:38

--------------------------------------------------------------------------------
Analyzed: Dick Van Dyke, Adrian Hall, Heather Ripley / Chitty Chitty Bang Bang (Disc 1)
--------------------------------------------------------------------------------

DR Peak RMS Duration Track
--------------------------------------------------------------------------------
DR11 -0.92 dB -14.43 dB 2:52 02-You Two
DR10 -0.28 dB -11.87 dB 1:39 06-Chitty Chitty Bang Bang
DR9 -0.23 dB -12.24 dB 1:20 19-Chitty Chitty Bang Bang (Film Mix)
--------------------------------------------------------------------------------

Number of tracks: 3
Official DR value: DR10

Samplerate: 44100 Hz
Channels: 2
Bits per sample: 16
Bitrate: 819 kbps
Codec: FLAC
================================================================================

--------------------------------------------------------------------------------
Analyzed: Dick Van Dyke, Sally Ann Howes, Adrian Hall, Heather Ripley / Chitty Chitty Bang Bang (Disc 1) (1)
Dick Van Dyke, Sally Ann Howes, Choir / Chitty Chitty Bang Bang (Disc 1) (2)
--------------------------------------------------------------------------------

DR Peak RMS Duration Track
--------------------------------------------------------------------------------
DR9 -0.10 dB -10.98 dB 1:12 08-Chitty Chitty Bang Bang (Reprise)
DR9 -0.08 dB -11.05 dB 1:18 16-Chitty Chitty Bang Bang Finale
--------------------------------------------------------------------------------

Number of tracks: 2
Official DR value: DR9

Samplerate: 44100 Hz
Channels: 2
Bits per sample: 16
Bitrate: 819 kbps
Codec: FLAC
================================================================================

--------------------------------------------------------------------------------
Analyzed: Dick Van Dyke, Sally Ann Howes,Adrian Hall, Heather Ripley, Cast / Chitty Chitty Bang Bang (Disc 1) (1)
Dick Van Dyke, Sally Ann Howes / Chitty Chitty Bang Bang (Disc 1) (2-3)
--------------------------------------------------------------------------------

DR Peak RMS Duration Track
--------------------------------------------------------------------------------
DR10 -0.72 dB -13.19 dB 3:28 03-Toot Sweets
DR8 -2.59 dB -13.44 dB 1:22 12-Hushabye Mountain (Reprise)
DR9 -2.66 dB -15.19 dB 2:27 15-Doll On A Music Box & Truly Scrumptious
--------------------------------------------------------------------------------

Number of tracks: 3
Official DR value: DR9

Samplerate: 44100 Hz
Channels: 2
Bits per sample: 16
Bitrate: 819 kbps
Codec: FLAC
================================================================================

--------------------------------------------------------------------------------
Analyzed: Dick Van Dyke / Chitty Chitty Bang Bang (Disc 1) (1-2)
Gert Frobe, Anna Quayle / Chitty Chitty Bang Bang (Disc 1) (3)
--------------------------------------------------------------------------------

DR Peak RMS Duration Track
--------------------------------------------------------------------------------
DR11 -2.23 dB -17.16 dB 1:55 04-Hushabye Mountain
DR11 -0.62 dB -13.26 dB 3:02 05-Me Ol' Bamboo
DR10 -0.01 dB -14.41 dB 2:21 14-Chu-Chi Face
--------------------------------------------------------------------------------

Number of tracks: 3
Official DR value: DR11

Samplerate: 44100 Hz
Channels: 2
Bits per sample: 16
Bitrate: 819 kbps
Codec: FLAC
================================================================================

--------------------------------------------------------------------------------
Statistics for: 13-The Roses Of Success
Number of samples: 7614600
Duration: 2:53
--------------------------------------------------------------------------------

Left Right

Peak Value: -0.01 dB --- -0.08 dB
Avg RMS: -12.05 dB --- -13.59 dB
DR channel: 9.23 dB --- 10.88 dB
--------------------------------------------------------------------------------

Official DR Value: DR10

Samplerate: 44100 Hz
Channels: 2
Bits per sample: 16
Bitrate: 819 kbps
Codec: FLAC
================================================================================
--------------------------------------------------------------------------------
Analyzed: Lionel Jeffries / Chitty Chitty Bang Bang (Disc 1) (1)
Lola Fisher / Chitty Chitty Bang Bang (Disc 1) (2-4)
--------------------------------------------------------------------------------

DR Peak RMS Duration Track
--------------------------------------------------------------------------------
DR10 -0.01 dB -13.38 dB 2:56 11-Posh
DR11 -3.46 dB -17.44 dB 2:24 24-Hushabye Mountain
DR10 -3.09 dB -15.99 dB 3:27 26-Lovely, Lonely Man
DR11 -2.21 dB -15.63 dB 3:26 28-Doll On A Music Box & Truly Scrumptious
--------------------------------------------------------------------------------

Number of tracks: 4
Official DR value: DR10

Samplerate: 44100 Hz
Channels: 2
Bits per sample: 16
Bitrate: 819 kbps
Codec: FLAC
================================================================================

--------------------------------------------------------------------------------
Analyzed: Richard M. Sherman & Robert B. Sherman / Chitty Chitty Bang Bang (Disc 1)
--------------------------------------------------------------------------------

DR Peak RMS Duration Track
--------------------------------------------------------------------------------
DR10 -0.14 dB -13.05 dB 3:39 01-Main Title
DR9 -0.02 dB -10.49 dB 1:10 09-Entr'Acte
DR10 -0.08 dB -12.46 dB 1:15 17-Exit Music
DR10 -0.06 dB -13.58 dB 6:33 18-Main Title (Film Version With Sound Effects)
DR10 -0.42 dB -12.40 dB 1:16 20-Exit Music (Film Mix)
DR11 -0.06 dB -13.28 dB 2:26 23-Toot Sweets
--------------------------------------------------------------------------------

Number of tracks: 6
Official DR value: DR10

Samplerate: 44100 Hz
Channels: 2
Bits per sample: 16
Bitrate: 819 kbps
Codec: FLAC
================================================================================

--------------------------------------------------------------------------------
Analyzed: Richard M. Sherman, Lola Fisher / Chitty Chitty Bang Bang (Disc 1)
--------------------------------------------------------------------------------

DR Peak RMS Duration Track
--------------------------------------------------------------------------------
DR11 -0.79 dB -13.07 dB 1:32 21-Chitty Chitty Bang Bang
DR12 -1.83 dB -16.04 dB 2:32 29-Chu-Chi Face
--------------------------------------------------------------------------------

Number of tracks: 2
Official DR value: DR11

Samplerate: 44100 Hz
Channels: 2
Bits per sample: 16
Bitrate: 819 kbps
Codec: FLAC
================================================================================

--------------------------------------------------------------------------------
Analyzed: Richard M. Sherman / Chitty Chitty Bang Bang (Disc 1)
--------------------------------------------------------------------------------

DR Peak RMS Duration Track
--------------------------------------------------------------------------------
DR12 -1.18 dB -15.36 dB 3:19 22-You Two
DR10 -0.25 dB -12.43 dB 2:39 25-Me Ol' Bamboo
DR10 -0.57 dB -12.45 dB 2:09 27-Posh
DR12 -0.75 dB -13.75 dB 2:59 30-The Roses Of Success
--------------------------------------------------------------------------------

Number of tracks: 4
Official DR value: DR11

Samplerate: 44100 Hz
Channels: 2
Bits per sample: 16
Bitrate: 819 kbps
Codec: FLAC
================================================================================

--------------------------------------------------------------------------------
Analyzed: Sally Ann Howes, Adrian Hall, Heather Ripley / Chitty Chitty Bang Bang (Disc 1) (1)
Sally Ann Howes / Chitty Chitty Bang Bang (Disc 1) (2)
--------------------------------------------------------------------------------

DR Peak RMS Duration Track
--------------------------------------------------------------------------------
DR11 -1.74 dB -15.07 dB 3:26 07-Truly Scrumptious
DR9 -1.49 dB -14.01 dB 2:54 10-Lovely, Lonely Man
--------------------------------------------------------------------------------

Number of tracks: 2
Official DR value: DR10

Samplerate: 44100 Hz
Channels: 2
Bits per sample: 16
Bitrate: 819 kbps
Codec: FLAC
================================================================================


Exact Audio Copy V1.0 beta 3 from 29. August 2011

EAC extraction logfile from 30. March 2013, 11:18

Richard M. Sherman & Robert B. Sherman / Chitty Chitty Bang Bang (Disc 2)

Used drive : TSSTcorpCDDVDW SH-S202H Adapter: 0 ID: 0

Read mode : Secure
Utilize accurate stream : Yes
Defeat audio cache : Yes
Make use of C2 pointers : No

Read offset correction : 6
Overread into Lead-In and Lead-Out : No
Fill up missing offset samples with silence : Yes
Delete leading and trailing silent blocks : No
Null samples used in CRC calculations : Yes
Used interface : Native Win32 interface for Win NT & 2000

Used output format : Internal WAV Routines
Sample format : 44.100 Hz; 16 Bit; Stereo


TOC of the extracted CD

Track | Start | Length | Start sector | End sector
---------------------------------------------------------
1 | 0:00.00 | 2:27.16 | 0 | 11040
2 | 2:27.16 | 2:00.64 | 11041 | 20104
3 | 4:28.05 | 1:55.42 | 20105 | 28771
4 | 6:23.47 | 2:37.63 | 28772 | 40609
5 | 9:01.35 | 1:59.22 | 40610 | 49556
6 | 11:00.57 | 3:13.18 | 49557 | 64049
7 | 14:14.00 | 1:33.34 | 64050 | 71058
8 | 15:47.34 | 1:48.13 | 71059 | 79171
9 | 17:35.47 | 1:12.47 | 79172 | 84618
10 | 18:48.19 | 2:38.73 | 84619 | 96541
11 | 21:27.17 | 0:56.63 | 96542 | 100804
12 | 22:24.05 | 1:33.47 | 100805 | 107826
13 | 23:57.52 | 1:54.20 | 107827 | 116396
14 | 25:51.72 | 2:51.19 | 116397 | 129240
15 | 28:43.16 | 1:37.34 | 129241 | 136549
16 | 30:20.50 | 1:11.06 | 136550 | 141880
17 | 31:31.56 | 1:41.19 | 141881 | 149474
18 | 33:13.00 | 0:49.45 | 149475 | 153194
19 | 34:02.45 | 1:35.30 | 153195 | 160349
20 | 35:38.00 | 7:28.52 | 160350 | 194001


Range status and errors

Selected range

Filename D:Richard M. Sherman & Robert B. Sherman - Chitty Chitty Bang BangRichard M. Sherman & Robert B. Sherman - Chitty Chitty Bang Bang (Disc 2).wav

Peak level 99.9 %
Extraction speed 6.6 X
Range quality 100.0 %
Test CRC 9B7B4339
Copy CRC 9B7B4339
Copy OK

No errors occurred


AccurateRip summary

Track 1 accurately ripped (confidence 3) [D22C10F1] (AR v2)
Track 2 accurately ripped (confidence 3) [8A076B16] (AR v2)
Track 3 accurately ripped (confidence 3) [4CB750BD] (AR v2)
Track 4 accurately ripped (confidence 3) [71110595] (AR v2)
Track 5 accurately ripped (confidence 3) [D2A68EE0] (AR v2)
Track 6 accurately ripped (confidence 3) [DB7E18D8] (AR v2)
Track 7 accurately ripped (confidence 3) [68C7CD2C] (AR v2)
Track 8 accurately ripped (confidence 3) [297C90F9] (AR v2)
Track 9 accurately ripped (confidence 3) [A0E34773] (AR v2)
Track 10 accurately ripped (confidence 3) [F7919334] (AR v2)
Track 11 accurately ripped (confidence 3) [DA2C6D99] (AR v2)
Track 12 accurately ripped (confidence 3) [7D7D68BF] (AR v2)
Track 13 accurately ripped (confidence 3) [FD586A64] (AR v2)
Track 14 accurately ripped (confidence 3) [A8FBDCFD] (AR v2)
Track 15 accurately ripped (confidence 3) [32F7BC6E] (AR v2)
Track 16 accurately ripped (confidence 3) [9B82A5D7] (AR v2)
Track 17 accurately ripped (confidence 3) [560F7B19] (AR v2)
Track 18 accurately ripped (confidence 3) [87723494] (AR v2)
Track 19 accurately ripped (confidence 3) [5AEFB899] (AR v2)
Track 20 accurately ripped (confidence 3) [A3E32F6E] (AR v2)

All tracks accurately ripped

End of status report

==== Log checksum 21BAB285C8754270B518D4A40198782D9172771ABCA3137DF6916844B4531610 ====

foobar2000 1.2 / Dynamic Range Meter 1.1.1
log date: 2015-01-07 19:17:07

--------------------------------------------------------------------------------
Analyzed: Richard M. Sherman & Robert B. Sherman / Chitty Chitty Bang Bang (Disc 2)
--------------------------------------------------------------------------------

DR Peak RMS Duration Track
--------------------------------------------------------------------------------
DR9 -0.13 dB -10.64 dB 1:37 15-Chitty Chitty Bang Bang 1
DR9 -0.40 dB -11.51 dB 1:11 16-Chitty Chitty Bang Bang 2
DR8 -0.10 dB -10.62 dB 1:41 17-Chitty Chitty Bang Bang 3
DR10 -0.14 dB -12.48 dB 0:50 18-The Vulgarin Anthem
DR8 -2.77 dB -12.53 dB 1:35 19-Chu-Chi Face Waltz
DR11 0.00 dB -14.05 dB 7:29 20-Doll On A Music Box Parts 1-3
--------------------------------------------------------------------------------

Number of tracks: 6
Official DR value: DR9

Samplerate: 44100 Hz
Channels: 2
Bits per sample: 16
Bitrate: 650 kbps
Codec: FLAC
================================================================================

--------------------------------------------------------------------------------
Analyzed: Richard M. Sherman / Chitty Chitty Bang Bang (Disc 2)
--------------------------------------------------------------------------------

DR Peak RMS Duration Track
--------------------------------------------------------------------------------
DR14 -1.93 dB -18.94 dB 2:27 01-You Two
DR11 -3.64 dB -17.23 dB 2:01 02-Toot Sweets
DR12 -2.65 dB -16.64 dB 1:56 03-Chitty Chitty Bang Bang
DR11 -4.26 dB -18.41 dB 2:38 04-Truly Scrumptious
DR11 -2.26 dB -15.90 dB 1:59 05-Chitty Chitty Bang Bang 2
DR11 -3.76 dB -20.19 dB 3:13 06-Lovely, Lonely Man
DR11 -3.06 dB -16.92 dB 1:33 07-Posh
DR12 -6.29 dB -23.80 dB 1:48 08-Hushabye Mountain
DR9 -5.48 dB -18.19 dB 1:13 09-The Vulgarin Anthem
DR10 -4.58 dB -17.99 dB 2:39 10-The Roses Of Success
DR13 -0.79 dB -19.97 dB 0:57 11-Chitty Chitty Bang Bang (Children's Reprise)
DR12 -2.72 dB -20.01 dB 1:34 12-Hushabye Mountain (Grandfather's Reprise)
DR10 -3.95 dB -16.89 dB 1:54 13-Fun Fair
DR11 -1.67 dB -16.67 dB 2:51 14-Lovely, Lonely Man / Chitty Chitty Bang Bang Finale
--------------------------------------------------------------------------------

Number of tracks: 14
Official DR value: DR11

Samplerate: 44100 Hz
Channels: 2
Bits per sample: 16
Bitrate: 650 kbps
Codec: FLAC
================================================================================



All thanks to original releaser - Composer's fan



Password: designol