Bruce Greenwood | Season 8 Episode 21 The Communication Deterioration | Damon Wayans Jr.

Georges Delerue - Police Python 357 / L'important... Original Soundtracks (2004)


Georges Delerue - Police Python 357 / L'important... Original Soundtracks (2004)
EAC | FLAC | Image (Cue&Log) ~ 348 Mb (incl 5%) | Mp3 (CBR320) ~ 166 Mb (incl 5%) | Scans ~ 279 Mb
Genre: Soundtrack, Score | Label: Universal | # 981 808-7 | Time: 01:09:06

Reissue of eight film scores composed by Georges Delerue who was one of France's most successful soundtrack composers. This compilation features music from film and TV, including Police Python 357 (1975), L'important (1974), Paul Gauguin (1975), Quelque Part, Quelqu'un (1972), Jamais Plus Toujours (1975), Malpertuis (1975), Les Aveux Les Plus Doux (1971) and Paul Et Virginie (1974). The fascinating sleeve notes give a deep insight into the composer's life and times.







Tracklist:

Police Python 357 (1976):

01. Police Python 357 (3:16)
02. Les châteaux (1:36)
03. Final (3:11)

L'important c'est d'aimer (1975):

04. Ballade dérisoire (version 1) (1:40)
05. Désespoir et violence (2:21)
06. Largo (1:26)
07. Le théatre (2:09)
08. Ballade dérisoire (version 2) (1:38)

Paul Gauguin (1975):

09. D'où venons-nous ? (5:07)
10. Que sommes-nous ? (2:28)
11. Où allons-nous ? (2:02)

Quelque part, quelqu'un (1972):

12. Quelque part, quelqu'un (3:11)
13. Carrefour (2:30)
14. Apaisement (1:30)

Jamais plus toujours (1976):

15. Jamais plus toujours (3:17)
16. Cartes postales (2:24)

Malpertuis (1971):

17. Malpertuis (Suite) (12:56)

Les aveux les plus doux (1971):

18. Catherine et Jean (3:42)

Paul et Virginie (1974):

19. Adolescence (Générique) (4:46)
20. Paradisiaque (3:08)
21. L'adieu (3:31)


Exact Audio Copy V1.0 beta 3 from 29. August 2011

EAC extraction logfile from 22. December 2014, 14:13

Georges Delerue / Police Python 357 - L'important c'est d'aimer

Used drive : TSSTcorpCDDVDW TS-L633C Adapter: 2 ID: 0

Read mode : Secure
Utilize accurate stream : Yes
Defeat audio cache : Yes
Make use of C2 pointers : No

Read offset correction : 6
Overread into Lead-In and Lead-Out : No
Fill up missing offset samples with silence : Yes
Delete leading and trailing silent blocks : No
Null samples used in CRC calculations : Yes
Used interface : Native Win32 interface for Win NT & 2000

Used output format : Internal WAV Routines
Sample format : 44.100 Hz; 16 Bit; Stereo


TOC of the extracted CD

Track | Start | Length | Start sector | End sector
---------------------------------------------------------
1 | 0:00.00 | 3:19.03 | 0 | 14927
2 | 3:19.03 | 1:39.29 | 14928 | 22381
3 | 4:58.32 | 3:15.05 | 22382 | 37011
4 | 8:13.37 | 1:42.71 | 37012 | 44732
5 | 9:56.33 | 2:23.30 | 44733 | 55487
6 | 12:19.63 | 1:29.24 | 55488 | 62186
7 | 13:49.12 | 2:12.51 | 62187 | 72137
8 | 16:01.63 | 1:43.42 | 72138 | 79904
9 | 17:45.30 | 5:10.49 | 79905 | 103203
10 | 22:56.04 | 2:31.11 | 103204 | 114539
11 | 25:27.15 | 2:07.07 | 114540 | 124071
12 | 27:34.22 | 3:14.28 | 124072 | 138649
13 | 30:48.50 | 2:32.58 | 138650 | 150107
14 | 33:21.33 | 1:34.08 | 150108 | 157165
15 | 34:55.41 | 3:19.52 | 157166 | 172142
16 | 38:15.18 | 2:29.61 | 172143 | 183378
17 | 40:45.04 | 13:01.09 | 183379 | 241962
18 | 53:46.13 | 3:46.52 | 241963 | 258964
19 | 57:32.65 | 4:49.69 | 258965 | 280708
20 | 62:22.59 | 3:10.49 | 280709 | 295007
21 | 65:33.33 | 3:32.56 | 295008 | 310963


Range status and errors

Selected range

Filename H:Georges Delerue - CD Collection [by italia57]Georges Delerue (1975) Police Python 357Georges Delerue - Police Python 357 - L'important c'est d'aimer (ELC 30).wav

Peak level 97.7 %
Extraction speed 1.6 X
Range quality 100.0 %
Test CRC D72F43E4
Copy CRC D72F43E4
Copy OK

No errors occurred


AccurateRip summary

Track 1 cannot be verified as accurate (confidence 3) [F819C30B], AccurateRip returned [FC840052] (AR v2)
Track 2 cannot be verified as accurate (confidence 3) [E119AD5F], AccurateRip returned [9A39ECF7] (AR v2)
Track 3 cannot be verified as accurate (confidence 3) [E33726F9], AccurateRip returned [8E2E23D1] (AR v2)
Track 4 cannot be verified as accurate (confidence 3) [4AD76AA6], AccurateRip returned [B7B2A73D] (AR v2)
Track 5 cannot be verified as accurate (confidence 3) [FD8F07AF], AccurateRip returned [25630838] (AR v2)
Track 6 cannot be verified as accurate (confidence 3) [E783CA16], AccurateRip returned [8C765F35] (AR v2)
Track 7 cannot be verified as accurate (confidence 3) [50D69AB2], AccurateRip returned [6664F156] (AR v2)
Track 8 cannot be verified as accurate (confidence 3) [1C82E6B3], AccurateRip returned [34A284D7] (AR v2)
Track 9 cannot be verified as accurate (confidence 3) [5A7A9D94], AccurateRip returned [DFCA556C] (AR v2)
Track 10 cannot be verified as accurate (confidence 3) [BB93CEFE], AccurateRip returned [957C76B9] (AR v2)
Track 11 cannot be verified as accurate (confidence 3) [C9F16B51], AccurateRip returned [3352E276] (AR v2)
Track 12 cannot be verified as accurate (confidence 3) [461D7A27], AccurateRip returned [D189E791] (AR v2)
Track 13 cannot be verified as accurate (confidence 2) [2DE70002], AccurateRip returned [7543AD26] (AR v2)
Track 14 cannot be verified as accurate (confidence 3) [AE0FFE15], AccurateRip returned [F502818F] (AR v2)
Track 15 cannot be verified as accurate (confidence 3) [40A96A6C], AccurateRip returned [3BBA5824] (AR v2)
Track 16 cannot be verified as accurate (confidence 3) [C09A2A15], AccurateRip returned [A1512A3C] (AR v2)
Track 17 cannot be verified as accurate (confidence 3) [45ABD347], AccurateRip returned [ED49364E] (AR v2)
Track 18 cannot be verified as accurate (confidence 3) [A23496D4], AccurateRip returned [75C37B4A] (AR v2)
Track 19 cannot be verified as accurate (confidence 3) [9EAF0190], AccurateRip returned [E7D5F7D1] (AR v2)
Track 20 cannot be verified as accurate (confidence 3) [B09DB881], AccurateRip returned [F2A6F448] (AR v2)
Track 21 cannot be verified as accurate (confidence 3) [163D7510], AccurateRip returned [F829B927] (AR v2)

No tracks could be verified as accurate
You may have a different pressing from the one(s) in the database

End of status report

---- CUETools DB Plugin V2.1.4

[CTDB TOCID: jHxUZAC8rGrmppX9otJIojE16Xg-] found
Submit result: jHxUZAC8rGrmppX9otJIojE16Xg- has been confirmed
Track | CTDB Status
1 | (7/7) Accurately ripped
2 | (7/7) Accurately ripped
3 | (7/7) Accurately ripped
4 | (7/7) Accurately ripped
5 | (7/7) Accurately ripped
6 | (7/7) Accurately ripped
7 | (7/7) Accurately ripped
8 | (7/7) Accurately ripped
9 | (7/7) Accurately ripped
10 | (7/7) Accurately ripped
11 | (7/7) Accurately ripped
12 | (7/7) Accurately ripped
13 | (6/7) Accurately ripped
14 | (7/7) Accurately ripped
15 | (7/7) Accurately ripped
16 | (7/7) Accurately ripped
17 | (7/7) Accurately ripped
18 | (7/7) Accurately ripped
19 | (7/7) Accurately ripped
20 | (7/7) Accurately ripped
21 | (7/7) Accurately ripped


==== Log checksum A286B9F4C9A8E6ABFCCCF174AFB455759CD8D457EDFE609FA41694BE5C83DBB2 ====

foobar2000 1.2 / Dynamic Range Meter 1.1.1
log date: 2015-01-04 16:05:09

--------------------------------------------------------------------------------
Analyzed: Georges Delerue / Police Python 357 - L'important c'est d'aimer
--------------------------------------------------------------------------------

DR Peak RMS Duration Track
--------------------------------------------------------------------------------
DR13 -1.40 dB -20.35 dB 3:19 01-Police Python 357 - Police Python 357
DR11 -0.97 dB -20.14 dB 1:39 02-Police Python 357 - Les chateaux
DR11 -4.17 dB -19.37 dB 3:15 03-Police Python 357 - Final
DR12 -1.58 dB -15.99 dB 1:43 04-L'important c'est d'aimer - Ballade derisoire
DR12 -0.72 dB -15.70 dB 2:23 05-L'important c'est d'aimer - Desespoir et violence
DR11 -5.92 dB -21.00 dB 1:29 06-L'important c'est d'aimer - Largo
DR16 -0.64 dB -22.74 dB 2:13 07-L'important c'est d'aimer - Le theatre
DR13 -2.84 dB -18.09 dB 1:44 08-L'important c'est d'aimer - Ballade derisoire (version 2)
DR10 -0.28 dB -15.41 dB 5:11 09-Paul Gauguin - D'ou venons-nous?
DR11 -2.46 dB -18.14 dB 2:31 10-Paul Gauguin - Que somme-nous?
DR10 -0.74 dB -13.46 dB 2:07 11-Paul Gauguin - Ou allons nous?
DR13 -0.20 dB -17.96 dB 3:14 12-Quelque part, quelqu'un - Quelque part, quelqu'un
DR10 -2.13 dB -16.64 dB 2:33 13-Quelque part, quelqu'un - Carrefour
DR10 -3.88 dB -20.50 dB 1:34 14-Quelque part, quelqu'un - Apaisement
DR13 -2.00 dB -20.15 dB 3:20 15-Jamais plus toujours - Jamais plus toujours
DR10 -1.13 dB -14.38 dB 2:30 16-Jamais plus toujours - Cartes postales
DR13 -0.33 dB -19.45 dB 13:01 17-Malpertuis - Suite
DR11 -3.57 dB -18.85 dB 3:47 18-Les aveux les plus doux - Catherine et Jean
DR11 -8.36 dB -22.26 dB 4:50 19-Paul et Virginie - Adolescence (Generique)
DR10 -4.33 dB -19.14 dB 3:11 20-Paul et Virginie - Paradisiaque
DR11 -0.31 dB -18.15 dB 3:33 21-Paul et Virginie - L'adieu
--------------------------------------------------------------------------------

Number of tracks: 21
Official DR value: DR12

Samplerate: 44100 Hz
Channels: 2
Bits per sample: 16
Bitrate: 671 kbps
Codec: FLAC
================================================================================



All thanks to original releaser - italia57



















Password: designol