a href=http://acefile co/f/35995 title=katmovieHd-Luke Cage 2016 (S01 E13) 720p WEB-DL x264 DD 2 0 HINDI - ENG mkvkatmovieHd-Luke Cage 2016 (S01 E13) 720p WEB-DL x264 DD 2 0 HINDI - ENG mkv/a | Power Rangers In Space | The Purge: Anarchy

Вход в свой аккаунт

Или войдите через соц. сети

Xanadu OST (1980) [Japan Mini-CD]


Xanadu OST (1980) [Japan Mini-CD]
EAC Rip | FLAC (Tracks) +CUE, LOG | 559 MB | Covers Included
OST | Label: CBS-Sony | Catalog Number: 25AP1900

“ Xanadu is a 1980 American romantic musical fantasy film written by Richard Christian Danus and Marc Reid Rubel and directed by Robert Greenwald. The title is a reference to the nightclub in the film, which takes its name from Xanadu, the summer capital of Kublai Khan's Yuan Dynasty in China. This city appears in Kubla Khan by Samuel Taylor Coleridge, a poem that is quoted in the film. The film's plot was inspired by 1947's Down to Earth.
Xanadu stars Olivia Newton-John, Michael Beck, and Gene Kelly, and features music by Newton-John, Electric Light Orchestra, Cliff Richard, and The Tubes.
”


“ Xanadu was recorded at Musicland Studios in Munich, Germany late in 1979 and/or early in 1980 with both Olivia Newton-John and the Electric Light Orchestra present for the full session. Olivia sang the lead and harmony vocals, while Jeff Lynne sang all backing and additional harmony vocals. The song had earlier been recorded as a demo. This demo was provided to the motion picture's producers and the dance sequences for the motion picture were filmed to the demo rather than the final song. Therefore when it came time to record the final song at the studio in Germany, the band had to match the final song's beat to the imperfect beat of the demo so that the final song would work with the parts filmed for the motion picture. As a result, the beat of the song is slightly off tempo although not noticeably by most people. Jeff Lynne has stated on multiple occasions that although he considers the song to be a bit soft or light, it's still one of his most favorite songs that he wrote. It is also a rare instance of an ELO hit that has no instrumental bridge.

The song was released as a single in England on Jet records (ELO's label) on June 1980 with stock number "JET 185" with Olivia's Fool Country (no Jeff Lynne involvement) on the B-side. In the USA, it's the 22nd single release by ELO and was released in August of 1980 on MCA Records (Olivia Newton-John's label) with stock number "MCA-41285" with the album version of Whenever You're Away From Me on the B-side, a song which is an Olivia duet with Gene Kelly and has no ELO involvement. It was also released as the final track of the ELO side on the Xanadu album on June 1980 in the USA and July 1980 in England.

Regarding the UK and USA release dates for the Xanadu single, there was some controversy between MCA and Jet Records about them. Apparently MCA wanted Magic to be the first Olivia single release from the album, which they did, simultaneously with ELO's I'm Alive in June of 1980. However, in the UK, Jet Records released Xanadu first in defiance of MCA's wishes, along with ELO's I'm Alive. In August of 1980, MCA finally released Xanadu along with ELO's All Over The World in North America.
”


Exact Audio Copy V1.0 beta 3 from 29. August 2011

EAC extraction logfile from 17. December 2014, 18:03

- / Xanadu

Used drive : ATAPI DVD A DH16A6L-C Adapter: 2 ID: 0

Read mode : Secure
Utilize accurate stream : Yes
Defeat audio cache : Yes
Make use of C2 pointers : No

Read offset correction : 6
Overread into Lead-In and Lead-Out : No
Fill up missing offset samples with silence : Yes
Delete leading and trailing silent blocks : No
Null samples used in CRC calculations : Yes
Used interface : Native Win32 interface for Win NT & 2000
Gap handling : Appended to previous track

Used output format : User Defined Encoder
Selected bitrate : 1024 kBit/s
Quality : High
Add ID3 tag : No
Command line compressor : C:Program FilesFLACflac.exe
Additional command line options : -8 -V -T "ARTIST=%artist%" -T "TITLE=%title%" -T "ALBUM=%albumtitle%" -T "DATE=%year%" -T "TRACKNUMBER=%tracknr%" -T "GENRE=%genre%" -T "PERFORMER=%albuminterpret%" -T "COMPOSER=%composer%" %haslyrics%--tag-from-file=LYRICS="%lyricsfile%"%haslyrics% -T "ALBUMARTIST=%albumartist%" -T "DISCNUMBER=%cdnumber%" -T "TOTALDISCS=%totalcds%" -T "TOTALTRACKS=%numtracks%" -T "COMMENT=%comment%" %source% -o %dest%


TOC of the extracted CD

Track | Start | Length | Start sector | End sector
---------------------------------------------------------
1 | 0:00.00 | 4:29.42 | 0 | 20216
2 | 4:29.42 | 4:00.33 | 20217 | 38249
3 | 8:30.00 | 5:15.52 | 38250 | 61926
4 | 13:45.52 | 3:54.03 | 61927 | 79479
5 | 17:39.55 | 4:21.37 | 79480 | 99091
6 | 22:01.17 | 3:45.18 | 99092 | 115984
7 | 25:46.35 | 3:33.55 | 115985 | 132014
8 | 29:20.15 | 4:47.02 | 132015 | 153541
9 | 34:07.17 | 4:02.25 | 153542 | 171716
10 | 38:09.42 | 3:28.18 | 171717 | 187334


Track 1

Filename F:!!!!!POST!!!!Xanadu OST (1980)1 - Olivia Newton-John - Magic.wav

Pre-gap length 0:00:02.00

Peak level 93.5 %
Extraction speed 1.4 X
Track quality 99.9 %
Test CRC 6540194B
Copy CRC 6540194B
Cannot be verified as accurate (confidence 26) [D1F97733], AccurateRip returned [87F79430] (AR v2)
Copy OK

Track 2

Filename F:!!!!!POST!!!!Xanadu OST (1980)2 - Olivia Newton-John & Cliff Richard - Suddenly.wav

Peak level 94.9 %
Extraction speed 2.0 X
Track quality 100.0 %
Test CRC 355590F1
Copy CRC 355590F1
Cannot be verified as accurate (confidence 26) [0F740224], AccurateRip returned [D11625C7] (AR v2)
Copy OK

Track 3

Filename F:!!!!!POST!!!!Xanadu OST (1980)3 - Olivia Newton-John & The Tubes - Dancin'.wav

Peak level 94.8 %
Extraction speed 1.8 X
Track quality 99.9 %
Test CRC 64D06330
Copy CRC 64D06330
Cannot be verified as accurate (confidence 26) [233E1903], AccurateRip returned [42DF8483] (AR v2)
Copy OK

Track 4

Filename F:!!!!!POST!!!!Xanadu OST (1980)4 - Olivia Newton-John - Suspended In Time.wav

Peak level 93.9 %
Extraction speed 1.8 X
Track quality 99.9 %
Test CRC A9A2CC0D
Copy CRC A9A2CC0D
Cannot be verified as accurate (confidence 26) [1F3496E1], AccurateRip returned [E081CBF3] (AR v2)
Copy OK

Track 5

Filename F:!!!!!POST!!!!Xanadu OST (1980)5 - Olivia Newton-John & Gene Kelly - Whenever You're Away From Me.wav

Peak level 91.8 %
Extraction speed 2.6 X
Track quality 100.0 %
Test CRC 610A0280
Copy CRC 610A0280
Cannot be verified as accurate (confidence 26) [F4A8A3FD], AccurateRip returned [59B54910] (AR v2)
Copy OK

Track 6

Filename F:!!!!!POST!!!!Xanadu OST (1980)6 - E.L.O - I'm Alive.wav

Peak level 96.7 %
Extraction speed 2.7 X
Track quality 100.0 %
Test CRC EFBEB0B0
Copy CRC EFBEB0B0
Cannot be verified as accurate (confidence 26) [C6D2CD32], AccurateRip returned [948AAD8F] (AR v2)
Copy OK

Track 7

Filename F:!!!!!POST!!!!Xanadu OST (1980)7 - E.L.O - The Fall.wav

Peak level 96.6 %
Extraction speed 2.8 X
Track quality 100.0 %
Test CRC 38014F19
Copy CRC 38014F19
Cannot be verified as accurate (confidence 27) [43F25842], AccurateRip returned [7EB460E6] (AR v2)
Copy OK

Track 8

Filename F:!!!!!POST!!!!Xanadu OST (1980)8 - E.L.O - Don't Walk Away.wav

Peak level 96.7 %
Extraction speed 3.1 X
Track quality 100.0 %
Test CRC 563D4113
Copy CRC 563D4113
Cannot be verified as accurate (confidence 26) [19660726], AccurateRip returned [A2D0C163] (AR v2)
Copy OK

Track 9

Filename F:!!!!!POST!!!!Xanadu OST (1980)9 - E.L.O - All Over The World.wav

Peak level 96.5 %
Extraction speed 2.3 X
Track quality 99.9 %
Test CRC 9697DCBB
Copy CRC 9697DCBB
Cannot be verified as accurate (confidence 26) [B9A1CB39], AccurateRip returned [E8F9742E] (AR v2)
Copy OK

Track 10

Filename F:!!!!!POST!!!!Xanadu OST (1980)10 - E.L.O. & Olivia Newton-John - Xanadu.wav

Peak level 96.5 %
Extraction speed 3.2 X
Track quality 100.0 %
Test CRC 355BC0BF
Copy CRC 355BC0BF
Cannot be verified as accurate (confidence 26) [79148E29], AccurateRip returned [00A605EF] (AR v2)
Copy OK


No tracks could be verified as accurate
You may have a different pressing from the one(s) in the database

No errors occurred

End of status report

==== Log checksum 388379AAE786F148B2FBC4C2F23A7C50FC7F54F51C1E29B0986367A692E4EF3E ====


Tracklist:
1. Magic (04:29)
Olivia Newton-John
2. Suddenly (04:00)
Olivia Newton-John & Cliff Richard
3. Dancin' (05:15)
Olivia Newton-John and The Tubes
4. Suspended in Time (03:53)
Olivia Newton-John
5. Whenever You're Away From Me (04:21)
Olivia Newton-John and Gene Kelly
6. I'm Alive (03:44)
Electric Light Orchestra
7. The Fall (03:33)
Electric Light Orchestra
8. Don't Walk Away (04:47)
Electric Light Orchestra
9. All Over the World (04:02)
Electric Light Orchestra
10. Xanadu (03:26)
Olivia Newton-John & Electric Light Orchestra


Password: www.AvaxHome.ws