Andromède 5 | regarder Episode | Pamela Adlon

Lalo Schifrin - The Mean Season: Original MGM Motion Picture Soundtrack (1985) Intrada Special Collection 2010


Lalo Schifrin - The Mean Season: Original MGM Motion Picture Soundtrack (1985) Intrada Special Collection 2010
EAC | FLAC | Image (Cue&Log) ~ 381 Mb (incl 5%) | Mp3 (CBR320) ~ 198 Mb (incl 5%) | Scans included
Genre: Soundtrack, Score | Label: Intrada | # Special Collection Volume ISC 138 | Time: 01:17:52

Pure delight for Lalo Schifrin fans! World premiere of exciting soundtrack for Phillip Borsos crime thriller with Kurt Russell, Mariel Hemingway, Andy Garcia. Schifrin spins web of suspense, then unleashes wild excitement for full orchestra. Along way are detours into classic Schifrin jazz. Dynamic main title is one of several highlights, with scorching trumpet in lead. Haunting closing music ("Christine") also features trumpet. Composer wrote some 45 minutes of score with thematic development but also wrote over half hour of tiny fragments, transitions, stingers. We have assembled "the album" portion with maximum listening in mind but also include every short cue, fragment in "the extras" section of CD, plus roadmap in notes for those wishing to dispense with tighter album listening and instead program entire 77-minute score in sequence. Intrada was given access to actual 32-track digital session masters vaulted by MGM in pristine condition, allowing us to create brand new two-track digital stereo mixes of every cue! Stunning audio is a result! Lalo Schifrin conducts. Intrada Special Collection release limited to 1200 copies!


Tech Talk From The Producer…

Writing in the best of mystery/thriller modes, Lalo Schifrin composed a powerful score for The Mean Season, anchored by an imposing main theme, first heard on solo trumpet in the “Mean Season Main Title.” Rehearsal takes were handled by session trumpet players with the scorching final performance take (CD track 1) played by star musician Chuck Findley. Schifrin follows this hot number with a score full of rich variations on the melody plus dynamic action cues and sinister, quasi-atonal string pieces. Rounding out Schifrin’s work are some bright jazz-style source cues in his finest signature manner. His score (and our “album” portion of the CD) concludes with Chuck Findley trading in his trumpet for the mellower flugelhorn in the relaxed and beautiful melody for “Christine (End Credits)” (CD track 22).

To prepare this CD, Intrada located the complete 32-track digital session masters, stored in mint condition at MGM. This allowed us to create brand new digital two-track stereo mixes of every cue, offering astonishing detail and vibrancy in Schifrin’s vast arsenal of orchestral colors. For audio purists, every step of the process, from initial transfers through mixes, into editing and down to the final mastering of the CD remained in the digital domain.

The first portion of our CD (the album) features all of the major cues and set pieces of Schifrin’s score, assembled to provide a rewarding listening experience. For archivists, the second portion of our CD (the extras) includes virtually every brief cue, transition and alternate sequence Schifrin composed and recorded that does not appear in the album section.

For those wishing to create a complete listening experience, approximating the chronological sequence of the picture, program your player as follows:
1, 23, 24, 9, 2, 3, 13, 25, 26, 11, 27, 28, 55, 5, 29, 4, 30, 12, 14, 15, 31, 32, 33, 34, 16, 17, 6, 35, 36, 37, 38, 7, 39, 8, 40, 41, 10, 42, 43, 44, 45, 18, 46, 19, 47, 48, 49, 50, 51, 20, 52, 53, 54, 21, 22.

Lalo Schifrin excels at all types of film scoring. But one would be hard-pressed to find something as flavorful and exciting as The Mean Season. Take it away, Lalo!

Douglass Fake








Tracklist:

The Album:

01. Mean Season Main Title (02:35)
02. The Timing Wasn't Right (02:39)
03. Press Room (00:24)
04. The Fourth Call (03:48)
05. Old Movie Strings (02:59)
06. Lobo Lounge (04:24)
07. We've Been Had (02:35)
08. At The Top Of The Bridge (02:58)
09. She'll Find Something (01:49)
10. Here We Go (01:01)
11. Headline (00:43)
12. Fish House Fit (02:39)
13. Shower Curtain (02:00)
14. I Just Wish (01:35)
15. Number Four (01:43)
16. Someone Walking (01:06)
17. You Let Everything Slide (02:43)
18. Everglades (01:25)
19. Alan (00:41)
20. Fighting In The Dark (01:32)
21. Your Name (01:06)
22. Christine (End Credits) (02:45)

The Extras:

23. Mean Cartoon Source (01:00)
24. News On The Telephone (00:44)
25. The First Call (01:23)
26. Number One (00:24)
27. Another Call (00:33)
28. Telenews (00:39)
29. The Third Call (01:07)
30. Headline Number Two (00:22)
31. Another Headline (00:25)
32. He Called Me (00:29)
33. I'll Play the Game (00:54)
34. Miami Skyline (00:35)
35. Lobo Lounge Alternate (04:20)
36. Quintet (05:50)
37. Hilson (00:32)
38. News (00:22)
39. No One Is Safe (01:20)
40. Dramatic Headline (00:25)
41. Never Mind (02:06)
42. When I've Made Up My Mind (00:52)
43. Malcolm's Answer (00:30)
44. Ominous Clouds (00:34)
45. We Are Waiting For You (00:38)
46. Accent #1 (00:06)
47. Stinger (00:15)
48. The Embrace (00:41)
49. Doorknobs (00:32)
50. Doorknobs Alternate (00:34)
51. You Are the Story (00:48)
52. Another Step (00:23)
53. Transition (00:19)
54. Transition Revised (00:20)
55. Lunchtime (02:14)


Exact Audio Copy V1.0 beta 3 from 29. August 2011

EAC extraction logfile from 12. April 2013, 18:12

Lalo Schifrin / The Mean Season

Used drive : TSSTcorpCDDVDW SH-S202H Adapter: 0 ID: 0

Read mode : Secure
Utilize accurate stream : Yes
Defeat audio cache : Yes
Make use of C2 pointers : No

Read offset correction : 6
Overread into Lead-In and Lead-Out : No
Fill up missing offset samples with silence : Yes
Delete leading and trailing silent blocks : No
Null samples used in CRC calculations : Yes
Used interface : Native Win32 interface for Win NT & 2000

Used output format : Internal WAV Routines
Sample format : 44.100 Hz; 16 Bit; Stereo


TOC of the extracted CD

Track | Start | Length | Start sector | End sector
---------------------------------------------------------
1 | 0:00.00 | 2:35.01 | 0 | 11625
2 | 2:35.01 | 2:39.37 | 11626 | 23587
3 | 5:14.38 | 0:24.47 | 23588 | 25434
4 | 5:39.10 | 3:48.60 | 25435 | 42594
5 | 9:27.70 | 2:59.02 | 42595 | 56021
6 | 12:26.72 | 4:24.37 | 56022 | 75858
7 | 16:51.34 | 2:35.70 | 75859 | 87553
8 | 19:27.29 | 2:58.38 | 87554 | 100941
9 | 22:25.67 | 1:49.04 | 100942 | 109120
10 | 24:14.71 | 1:01.00 | 109121 | 113695
11 | 25:15.71 | 0:43.13 | 113696 | 116933
12 | 25:59.09 | 2:39.14 | 116934 | 128872
13 | 28:38.23 | 2:00.00 | 128873 | 137872
14 | 30:38.23 | 1:35.30 | 137873 | 145027
15 | 32:13.53 | 1:43.31 | 145028 | 152783
16 | 33:57.09 | 1:06.52 | 152784 | 157785
17 | 35:03.61 | 2:43.38 | 157786 | 170048
18 | 37:47.24 | 1:25.64 | 170049 | 176487
19 | 39:13.13 | 0:41.14 | 176488 | 179576
20 | 39:54.27 | 1:32.68 | 179577 | 186544
21 | 41:27.20 | 1:06.45 | 186545 | 191539
22 | 42:33.65 | 2:45.32 | 191540 | 203946
23 | 45:19.22 | 1:00.32 | 203947 | 208478
24 | 46:19.54 | 0:44.48 | 208479 | 211826
25 | 47:04.27 | 1:23.68 | 211827 | 218119
26 | 48:28.20 | 0:24.40 | 218120 | 219959
27 | 48:52.60 | 0:33.61 | 219960 | 222495
28 | 49:26.46 | 0:39.46 | 222496 | 225466
29 | 50:06.17 | 1:07.32 | 225467 | 230523
30 | 51:13.49 | 0:22.07 | 230524 | 232180
31 | 51:35.56 | 0:25.70 | 232181 | 234125
32 | 52:01.51 | 0:29.02 | 234126 | 236302
33 | 52:30.53 | 0:54.42 | 236303 | 240394
34 | 53:25.20 | 0:35.32 | 240395 | 243051
35 | 54:00.52 | 4:20.08 | 243052 | 262559
36 | 58:20.60 | 5:50.34 | 262560 | 288843
37 | 64:11.19 | 0:32.34 | 288844 | 291277
38 | 64:43.53 | 0:22.67 | 291278 | 292994
39 | 65:06.45 | 1:20.02 | 292995 | 298996
40 | 66:26.47 | 0:25.74 | 298997 | 300945
41 | 66:52.46 | 2:06.00 | 300946 | 310395
42 | 68:58.46 | 0:52.33 | 310396 | 314328
43 | 69:51.04 | 0:30.13 | 314329 | 316591
44 | 70:21.17 | 0:34.30 | 316592 | 319171
45 | 70:55.47 | 0:38.40 | 319172 | 322061
46 | 71:34.12 | 0:06.73 | 322062 | 322584
47 | 71:41.10 | 0:15.38 | 322585 | 323747
48 | 71:56.48 | 0:41.74 | 323748 | 326896
49 | 72:38.47 | 0:32.50 | 326897 | 329346
50 | 73:11.22 | 0:34.23 | 329347 | 331919
51 | 73:45.45 | 0:48.40 | 331920 | 335559
52 | 74:34.10 | 0:23.31 | 335560 | 337315
53 | 74:57.41 | 0:19.05 | 337316 | 338745
54 | 75:16.46 | 0:20.38 | 338746 | 340283
55 | 75:37.09 | 2:14.47 | 340284 | 350380


Range status and errors

Selected range

Filename D:Lalo Schifrin - The Mean SeasonLalo Schifrin - The Mean Season.wav

Peak level 100.0 %
Extraction speed 8.5 X
Range quality 100.0 %
Test CRC 3F81E308
Copy CRC 3F81E308
Copy OK

No errors occurred


AccurateRip summary

Track 1 accurately ripped (confidence 4) [95C8D899] (AR v1)
Track 2 accurately ripped (confidence 4) [18848476] (AR v1)
Track 3 accurately ripped (confidence 4) [2E93F349] (AR v1)
Track 4 accurately ripped (confidence 4) [F1AD170A] (AR v1)
Track 5 accurately ripped (confidence 4) [D7F64E70] (AR v1)
Track 6 accurately ripped (confidence 4) [808FA8C5] (AR v1)
Track 7 accurately ripped (confidence 4) [B8904BDE] (AR v1)
Track 8 accurately ripped (confidence 4) [7E7BC9C6] (AR v1)
Track 9 accurately ripped (confidence 4) [73962B85] (AR v1)
Track 10 accurately ripped (confidence 4) [1613D8C0] (AR v1)
Track 11 accurately ripped (confidence 4) [0257620E] (AR v1)
Track 12 accurately ripped (confidence 4) [26D206A3] (AR v1)
Track 13 accurately ripped (confidence 4) [04B850C3] (AR v1)
Track 14 accurately ripped (confidence 4) [CBD12695] (AR v1)
Track 15 accurately ripped (confidence 4) [DD30E401] (AR v1)
Track 16 accurately ripped (confidence 4) [C810E711] (AR v1)
Track 17 accurately ripped (confidence 4) [F99F668D] (AR v1)
Track 18 accurately ripped (confidence 4) [10AF74A4] (AR v1)
Track 19 accurately ripped (confidence 4) [E8ECA168] (AR v1)
Track 20 accurately ripped (confidence 4) [D0553E19] (AR v1)
Track 21 accurately ripped (confidence 4) [834E55A0] (AR v1)
Track 22 accurately ripped (confidence 4) [553E8303] (AR v1)
Track 23 accurately ripped (confidence 4) [D016473C] (AR v1)
Track 24 accurately ripped (confidence 4) [B700F6C2] (AR v1)
Track 25 accurately ripped (confidence 4) [A9A552ED] (AR v1)
Track 26 accurately ripped (confidence 4) [B5AD3B54] (AR v1)
Track 27 accurately ripped (confidence 4) [23211580] (AR v1)
Track 28 accurately ripped (confidence 4) [67020B08] (AR v1)
Track 29 accurately ripped (confidence 4) [97765DA4] (AR v1)
Track 30 accurately ripped (confidence 4) [6B8BBB95] (AR v1)
Track 31 accurately ripped (confidence 4) [2EEE1AB8] (AR v1)
Track 32 accurately ripped (confidence 4) [C9883371] (AR v1)
Track 33 accurately ripped (confidence 4) [9E23A262] (AR v1)
Track 34 accurately ripped (confidence 4) [2124018E] (AR v1)
Track 35 accurately ripped (confidence 4) [DC7A3F84] (AR v1)
Track 36 accurately ripped (confidence 4) [365E7B5B] (AR v1)
Track 37 accurately ripped (confidence 4) [857C296F] (AR v1)
Track 38 accurately ripped (confidence 4) [D5B95E9D] (AR v1)
Track 39 accurately ripped (confidence 4) [28BD3106] (AR v1)
Track 40 accurately ripped (confidence 4) [381A09EC] (AR v1)
Track 41 accurately ripped (confidence 4) [9414F8D3] (AR v1)
Track 42 accurately ripped (confidence 4) [8AF6E06A] (AR v1)
Track 43 accurately ripped (confidence 4) [CDC921CF] (AR v1)
Track 44 accurately ripped (confidence 4) [CE9CC09D] (AR v1)
Track 45 accurately ripped (confidence 4) [F02BD8A7] (AR v1)
Track 46 accurately ripped (confidence 4) [480E61D9] (AR v1)
Track 47 accurately ripped (confidence 4) [57180996] (AR v1)
Track 48 accurately ripped (confidence 4) [784D9125] (AR v1)
Track 49 accurately ripped (confidence 4) [78E9E6F9] (AR v1)
Track 50 accurately ripped (confidence 4) [7E60B05D] (AR v1)
Track 51 accurately ripped (confidence 4) [A921E88F] (AR v1)
Track 52 accurately ripped (confidence 4) [B57BF3A8] (AR v1)
Track 53 accurately ripped (confidence 4) [7AA87B43] (AR v1)
Track 54 accurately ripped (confidence 4) [3E5377EF] (AR v1)
Track 55 accurately ripped (confidence 4) [13C6EA63] (AR v1)

All tracks accurately ripped

End of status report

==== Log checksum 69CFFAFCF19618A1C3154ACB02450E8CA7711DEB03054FA08FF0BA8BCF416104 ====

foobar2000 1.2 / Dynamic Range Meter 1.1.1
log date: 2014-12-26 21:36:13

--------------------------------------------------------------------------------
Analyzed: Lalo Schifrin / The Mean Season
--------------------------------------------------------------------------------

DR Peak RMS Duration Track
--------------------------------------------------------------------------------
DR14 0.00 dB -17.52 dB 2:35 01-Mean Season Main Title
DR11 -8.40 dB -25.54 dB 2:39 02-The Timing Wasn't Right
DR13 -0.04 dB -16.72 dB 0:25 03-Press Room
DR13 -4.15 dB -25.21 dB 3:49 04-The Fourth Call
DR11 -4.90 dB -19.19 dB 2:59 05-Old Movie Strings
DR15 0.00 dB -17.48 dB 4:24 06-Lobo Lounge
DR12 -8.64 dB -26.50 dB 2:36 07-We've Been Had
DR14 -0.01 dB -19.43 dB 2:59 08-At The Top Of The Bridge
DR12 -8.78 dB -26.36 dB 1:49 09-She'll Find Something
DR13 -0.65 dB -18.67 dB 1:01 10-Here We Go
DR11 -0.66 dB -15.14 dB 0:43 11-Headline
DR12 -2.70 dB -16.95 dB 2:39 12-Fish House Fit
DR15 -1.76 dB -25.01 dB 2:00 13-Shower Curtain
DR12 -9.88 dB -27.55 dB 1:35 14-I Just Wish
DR10 -2.20 dB -22.89 dB 1:43 15-Number Four
DR15 -3.98 dB -28.08 dB 1:07 16-Someone Walking
DR12 -7.26 dB -23.54 dB 2:44 17-You Let Everything Slide
DR12 -0.62 dB -17.61 dB 1:26 18-Everglades
DR15 -0.01 dB -19.93 dB 0:41 19-Alan
DR13 -0.62 dB -20.25 dB 1:33 20-Fighting In The Dark
DR11 -6.89 dB -23.19 dB 1:07 21-Your Name
DR12 -0.94 dB -18.11 dB 2:45 22-Christine (End Credits)
DR14 0.00 dB -18.31 dB 1:00 23-Mean Cartoon Source
DR9 -9.45 dB -25.48 dB 0:45 24-News On The Telephone
DR8 -16.13 dB -30.41 dB 1:24 25-The First Call
DR7 -10.64 dB -26.69 dB 0:25 26-Number One
DR10 -10.75 dB -26.37 dB 0:34 27-Another Call
DR10 -3.43 dB -18.35 dB 0:40 28-Telenews
DR9 -11.76 dB -23.83 dB 1:07 29-The Third Call
DR10 0.00 dB -16.50 dB 0:22 30-Headline Number Two
DR7 -3.67 dB -22.98 dB 0:26 31-Another Headline
DR8 -8.55 dB -25.48 dB 0:29 32-He Called Me
DR9 -13.02 dB -27.67 dB 0:55 33-I'll Play the Game
DR9 -14.84 dB -29.85 dB 0:35 34-Miami Skyline
DR14 -0.10 dB -17.70 dB 4:20 35-Lobo Lounge Alternate
DR15 -1.07 dB -19.84 dB 5:50 36-Quintet
DR10 -10.41 dB -26.76 dB 0:32 37-Hilson
DR10 -1.18 dB -19.05 dB 0:23 38-News
DR10 -9.79 dB -24.71 dB 1:20 39-No One Is Safe
DR10 -1.54 dB -17.65 dB 0:26 40-Dramatic Headline
DR12 -8.35 dB -28.87 dB 2:06 41-Never Mind
DR9 -14.76 dB -30.52 dB 0:52 42-When I've Made Up My Mind
DR12 -6.73 dB -25.69 dB 0:30 43-Malcolm's Answer
DR9 -3.60 dB -20.47 dB 0:34 44-Ominous Clouds
DR6 -7.61 dB -24.40 dB 0:39 45-We Are Waiting For You
DR17 -2.01 dB -18.85 dB 0:07 46-Accent #1
DR14 -2.15 dB -24.08 dB 0:16 47-Stinger
DR10 -12.00 dB -27.11 dB 0:42 48-The Embrace
DR6 -13.62 dB -24.21 dB 0:33 49-Doorknobs
DR8 -11.82 dB -29.53 dB 0:34 50-Doorknobs Alternate
DR9 -5.30 dB -20.34 dB 0:49 51-You Are the Story
DR11 -4.33 dB -21.57 dB 0:23 52-Another Step
DR7 -11.55 dB -25.92 dB 0:19 53-Transition
DR7 -12.52 dB -26.78 dB 0:21 54-Transition Revised
DR13 0.00 dB -15.44 dB 2:15 55-Lunchtime
--------------------------------------------------------------------------------

Number of tracks: 55
Official DR value: DR11

Samplerate: 44100 Hz
Channels: 2
Bits per sample: 16
Bitrate: 632 kbps
Codec: FLAC
================================================================================



All thanks to original releaser - Composer's fan






Film at Avaxhome:


Password: designol