Gabriel Monroe Eckert | Euphoria HD | Hunting Emma

Вход в свой аккаунт

Или войдите через соц. сети

John Barry - The Wrong Box: Original Motion Picture Soundtrack (1966) Intrada Special Collection 2011


John Barry - The Wrong Box: Original Motion Picture Soundtrack (1966) Intrada Special Collection 2011
EAC | FLAC | Image (Cue&Log) ~ 316 Mb (incl 5%) | Mp3 (CBR320) ~ 172 Mb (incl 5%) | Scans included
Genre: Soundtrack, Score | Label: Intrada | # Special Collection Volume ISC 191 | Time: 00:59:04

“ World premiere release of complete John Barry score for top-drawer 1966 Bryan Forbes black comedy with incomparable cast: John Mills, Ralph Richardson, Michael Caine, Peter Cook, Dudley Moore, Peter Sellers. Written during fertile period that includes THUNDERBALL, IPCRESS FILE, BORN FREE, QUILLER MEMORANDUM, Barry creates warm, lilting major-key waltz theme for Victorian England setting, then surrounds with variety of flavorful ideas both fun, dramatic. In latter portion of score, Barry introduces dizzying orchestral romp for wild hearse sequences. At time of release, Mainstream label issues 29-minute soundtrack album. In later years, stereo LP becomes arguably Barry's rarest, most-sought collector's item. Actual LP masters have long since vanished so this portion of Intrada CD is mastered from mint condition stereo copy of album. Fortunately, Sony vaults contained complete 1/4" session tapes in mono, allowing us to offer world premiere suites with some 20-minutes of never-before-released cues. Extra bonus from Mainstream vaults: one reel of original unedited 1/2" 3-track stereo session masters actually survives, allowing us to include two newly remixed cues. Amongst new musical highlights is both mono, stereo premiere of complete "Montage Of Deaths" cue plus additional music for rousing "Hackett Funeral" sequence. Delicious notes from Nick Redman plus both original artwork campaign, 1966 album cover complete fun package. John Barry conducts. Intrada Special Collection release available while quantities and interest remain! ”








Tracklist:

01. Main Title (02:49)
02. Montage Of Deaths (02:08)
03. Yes, Who Is That? (01:33)
04. Strangler (03:17)
05. Responsible For Bringing Us Together (01:12)
06. God Save Us / Pedantic, Boring, Old (01:54)
07. Morris Visits Dr. Pratt (00:59)
08. Morris Hides As He Sees Handcart (02:32)
09. Tontine Box Is Put On Hearse (01:40)
10. Only A Bird In A Gilded Cage (02:47)
11. Michael & Julia On Hearse (01:49)
12. Hackett Funeral And Fight (03:53)
13. Bournemouth Strangler (02:33)
14. Suite No. 1 (10:19)
15. Suite No. 2 (11:36)
16. 1M1 T8 [Main Title] (02:59)
17. 1M2 T1 [Montage Of Deaths / Rhino Safari / I Believe You Are Too] (04:57)


Exact Audio Copy V1.0 beta 3 from 29. August 2011

EAC extraction logfile from 16. March 2013, 11:33

John Barry / The Wrong Box

Used drive : TSSTcorpCDDVDW SH-S202H Adapter: 0 ID: 0

Read mode : Secure
Utilize accurate stream : Yes
Defeat audio cache : Yes
Make use of C2 pointers : No

Read offset correction : 6
Overread into Lead-In and Lead-Out : No
Fill up missing offset samples with silence : Yes
Delete leading and trailing silent blocks : No
Null samples used in CRC calculations : Yes
Used interface : Native Win32 interface for Win NT & 2000

Used output format : Internal WAV Routines
Sample format : 44.100 Hz; 16 Bit; Stereo


TOC of the extracted CD

Track | Start | Length | Start sector | End sector
---------------------------------------------------------
1 | 0:00.00 | 2:49.42 | 0 | 12716
2 | 2:49.42 | 2:08.71 | 12717 | 22387
3 | 4:58.38 | 1:33.18 | 22388 | 29380
4 | 6:31.56 | 3:17.15 | 29381 | 44170
5 | 9:48.71 | 1:12.55 | 44171 | 49625
6 | 11:01.51 | 1:54.05 | 49626 | 58180
7 | 12:55.56 | 0:59.50 | 58181 | 62655
8 | 13:55.31 | 2:32.62 | 62656 | 74117
9 | 16:28.18 | 1:40.10 | 74118 | 81627
10 | 18:08.28 | 2:47.20 | 81628 | 94172
11 | 20:55.48 | 1:49.25 | 94173 | 102372
12 | 22:44.73 | 3:53.16 | 102373 | 119863
13 | 26:38.14 | 2:33.11 | 119864 | 131349
14 | 29:11.25 | 10:19.58 | 131350 | 177832
15 | 39:31.08 | 11:36.08 | 177833 | 230040
16 | 51:07.16 | 2:59.22 | 230041 | 243487
17 | 54:06.38 | 4:57.48 | 243488 | 265810


Range status and errors

Selected range

Filename D:John Barry - The Wrong BoxJohn Barry - The Wrong Box.wav

Peak level 100.0 %
Extraction speed 7.7 X
Range quality 100.0 %
Test CRC 7AC8E97B
Copy CRC 7AC8E97B
Copy OK

No errors occurred


AccurateRip summary

Track 1 accurately ripped (confidence 3) [3F9D220F] (AR v1)
Track 2 accurately ripped (confidence 3) [357A5B55] (AR v1)
Track 3 accurately ripped (confidence 3) [4EA19E09] (AR v1)
Track 4 accurately ripped (confidence 3) [1A1C143E] (AR v1)
Track 5 accurately ripped (confidence 3) [36BF0123] (AR v1)
Track 6 accurately ripped (confidence 3) [D087A67D] (AR v1)
Track 7 accurately ripped (confidence 3) [B4BA86D2] (AR v1)
Track 8 accurately ripped (confidence 3) [B5A5B682] (AR v1)
Track 9 accurately ripped (confidence 3) [D0035D93] (AR v1)
Track 10 accurately ripped (confidence 3) [25C481E7] (AR v1)
Track 11 accurately ripped (confidence 3) [65F0F132] (AR v1)
Track 12 accurately ripped (confidence 3) [9E9AEE67] (AR v1)
Track 13 accurately ripped (confidence 3) [0E5FFA2A] (AR v1)
Track 14 accurately ripped (confidence 3) [30C75954] (AR v1)
Track 15 accurately ripped (confidence 3) [08F814F8] (AR v1)
Track 16 accurately ripped (confidence 3) [72CC288B] (AR v1)
Track 17 accurately ripped (confidence 3) [A31899B5] (AR v1)

All tracks accurately ripped

End of status report

==== Log checksum 15809AE99EB37B08CA760D9F9BA1BD845045F50939A61E615CDC0404C15AD8E5 ====

foobar2000 1.2 / Dynamic Range Meter 1.1.1
log date: 2014-12-26 02:34:15

--------------------------------------------------------------------------------
Analyzed: John Barry / The Wrong Box
--------------------------------------------------------------------------------

DR Peak RMS Duration Track
--------------------------------------------------------------------------------
DR11 -1.33 dB -16.06 dB 2:50 01-Main Title
DR12 -1.48 dB -17.69 dB 2:09 02-Montage Of Deaths
DR11 -9.91 dB -23.78 dB 1:33 03-Yes, Who Is That?
DR13 -1.39 dB -20.04 dB 3:17 04-Strangler
DR10 -6.57 dB -20.32 dB 1:13 05-Responsible For Bringing Us Together
DR11 -4.64 dB -20.07 dB 1:54 06-God Save Us / Pedantic, Boring, Old
DR11 -4.57 dB -21.59 dB 1:00 07-Morris Visits Dr. Pratt
DR12 -2.44 dB -18.77 dB 2:33 08-Morris Hides As He Sees Handcart
DR11 0.00 dB -14.93 dB 1:40 09-Tontine Box Is Put On Hearse
DR10 -0.06 dB -14.42 dB 1:49 11-Michael & Julia On Hearse
DR12 -0.09 dB -16.56 dB 3:53 12-Hackett Funeral And Fight
DR11 -1.79 dB -16.61 dB 2:33 13-Bournemouth Strangler
DR11 -0.25 dB -15.73 dB 10:20 14-Suite No. 1
DR12 -0.18 dB -15.81 dB 11:36 15-Suite No. 2
DR11 -1.33 dB -15.96 dB 2:59 16-1M1 T8 [Main Title]
DR12 0.00 dB -17.75 dB 4:58 17-1M2 T1 [Montage Of Deaths / Rhino Safari / I Believe You Are Too]
--------------------------------------------------------------------------------

Number of tracks: 16
Official DR value: DR11

Samplerate: 44100 Hz
Channels: 2
Bits per sample: 16
Bitrate: 646 kbps
Codec: FLAC
================================================================================

foobar2000 1.2 / Dynamic Range Meter 1.1.1
log date: 2014-12-26 02:34:00

--------------------------------------------------------------------------------
Statistics for: 10-Only A Bird In A Gilded Cage
Number of samples: 7376460
Duration: 2:47
--------------------------------------------------------------------------------

Left Right

Peak Value: -0.81 dB --- -0.76 dB
Avg RMS: -16.73 dB --- -16.76 dB
DR channel: 11.15 dB --- 11.64 dB
--------------------------------------------------------------------------------

Official DR Value: DR11

Samplerate: 44100 Hz
Channels: 2
Bits per sample: 16
Bitrate: 646 kbps
Codec: FLAC
================================================================================



All thanks to original releaser - Composer's fan



Password: designol