saison 5, épisode 1 No Sanctuary | surak2000 | 15:17 Tren a París

John Williams - Home Alone 2 - Lost In New York: Expanded Original Motion Picture Score (1992) 2CD Limited Edition 2012


John Williams - Home Alone 2 - Lost In New York: Expanded Original Motion Picture Score (1992) 2CD Limited Edition 2012
EAC | FLAC | Image (Cue&Log) ~ 640 Mb (incl 5%) | Mp3 (CBR320) ~ 295 Mb (incl 5%) | Scans included
Genre: Soundtrack, Score | Label: La-La-Land Records | # LLLCD 1232 | Time: 01:52:43

La-La Land Records and 20th Century Fox proudly present the remastered and slightly expanded 2-CD release of acclaimed composer John Williams' (JAWS, STAR WARS, RAIDERS OF THE LOST ARK, SCHINDLER'S LIST) orchestral score to the 1992 blockbuster holiday sequel HOME ALONE 2: LOST IN NEW YORK, starring Macaulay Culkin, Joe Pesci and Daniel Stern, and directed by Chris Columbus. Williams builds upon his marvelous HOME ALONE score, giving the Yuletide saga of Kevin McCallister a festive and joyous, Big Apple spin that will have you smiling through the holiday season! Produced by Nick Redman and Mike Matessino, and mastered by Dan Hersch and Mike Matessino, this special release, limited to 3000 units, features exclusive, in-depth liner notes by John Williams historian Mike Matessino. Yesssss!









Tracklist:

CD1:

01. Somewhere In My Memory (03:54)
02. Star Of Bethlehem (03:33)
03. Home Alone (Main Title) (02:07)
04. This Year's Wish (01:48)
05. We Overslept Again / Holiday Flight (03:16)
06. Separate Vacations (01:59)
07. Arrival In New York (02:59)
08. The Thieves Return (03:26)
09. Plaza Hotel (03:04)
10. Concierge (01:33)
11. Distant Goodnights (Christmas Star) (02:05)
12. A Day In The City (00:59)
13. Duncan's Toy Store (02:42)
14. Turtle Doves (01:26)
15. To The Plaza, Presto (03:26)
16. Race To The Room / Hot Pursuit (04:08)
17. Haunted Brownstone (03:01)
18. Appearance Of The Pigeon Lady (03:26)
19. Christmas At Carnegie Hall (O Come, All Ye Faithful /
O Little Town Of Bethlehem / Silent Night (05:06)

CD2:

01. Christmas Star - Preparing The Trap (04:22)
02. Another Christmas In The Trenches (02:34)
03. Running Through Town (01:15)
04. Luring The Thieves (04:01)
05. Kevin's Booby Traps (07:25)
06. Down The Rope / Into The Park (05:07)
07. Reunion At Rockefeller Center / It's Christmas (05:21)
08. Finale (01:59)
09. We Wish You A Merry Christmas / Merry Christmas, Merry Christmas (02:51)
10. End Titles ('Somewhere In My Memory') (01:40)
11. God Rest You Merry, Gentlemen / Good King Wenceslas (02:18)

Additional Music:

12. The Christmas Song (01:43)
13. Let It Snow! Let It Snow! Let It Snow! (01:14)
14. Winter Wonderland (01:23)
15. My Christmas Tree (02:38)
16. Christmas Star (03:22)
17. Merry Christmas, Merry Christmas (Alternate) (02:46)
18. Celebrity Ding-Dang-Dong (00:41)
19. Holiday Flight (Alternate) (02:24)
20. Suite From 'Angels With Filthy Souls II' (01:00)
21. Merry Christmas, Merry Christmas (Orchestra) (02:22)


Exact Audio Copy V1.0 beta 3 from 29. August 2011

EAC extraction logfile from 3. April 2013, 22:32

John Williams / Home Alone 2: Lost In New York (Disc 1)

Used drive : TSSTcorpCDDVDW SH-S202H Adapter: 0 ID: 0

Read mode : Secure
Utilize accurate stream : Yes
Defeat audio cache : Yes
Make use of C2 pointers : No

Read offset correction : 6
Overread into Lead-In and Lead-Out : No
Fill up missing offset samples with silence : Yes
Delete leading and trailing silent blocks : No
Null samples used in CRC calculations : Yes
Used interface : Native Win32 interface for Win NT & 2000

Used output format : Internal WAV Routines
Sample format : 44.100 Hz; 16 Bit; Stereo


TOC of the extracted CD

Track | Start | Length | Start sector | End sector
---------------------------------------------------------
1 | 0:00.00 | 3:54.60 | 0 | 17609
2 | 3:54.60 | 3:33.39 | 17610 | 33623
3 | 7:28.24 | 2:07.50 | 33624 | 43198
4 | 9:35.74 | 1:48.31 | 43199 | 51329
5 | 11:24.30 | 3:16.35 | 51330 | 66064
6 | 14:40.65 | 1:59.30 | 66065 | 75019
7 | 16:40.20 | 2:59.08 | 75020 | 88452
8 | 19:39.28 | 3:26.68 | 88453 | 103970
9 | 23:06.21 | 3:04.21 | 103971 | 117791
10 | 26:10.42 | 1:33.61 | 117792 | 124827
11 | 27:44.28 | 2:05.04 | 124828 | 134206
12 | 29:49.32 | 0:59.45 | 134207 | 138676
13 | 30:49.02 | 2:42.32 | 138677 | 150858
14 | 33:31.34 | 1:26.57 | 150859 | 157365
15 | 34:58.16 | 3:26.03 | 157366 | 172818
16 | 38:24.19 | 4:08.17 | 172819 | 191435
17 | 42:32.36 | 3:01.51 | 191436 | 205061
18 | 45:34.12 | 3:26.63 | 205062 | 220574
19 | 49:01.00 | 5:06.13 | 220575 | 243537


Range status and errors

Selected range

Filename D:John Williams - Home Alone 2- Lost In New YorkJohn Williams - Home Alone 2- Lost In New York (Disc 1).wav

Peak level 98.8 %
Extraction speed 7.1 X
Range quality 100.0 %
Test CRC 27DB229A
Copy CRC 27DB229A
Copy OK

No errors occurred


AccurateRip summary

Track 1 not present in database
Track 2 not present in database
Track 3 not present in database
Track 4 not present in database
Track 5 not present in database
Track 6 not present in database
Track 7 not present in database
Track 8 not present in database
Track 9 not present in database
Track 10 not present in database
Track 11 not present in database
Track 12 not present in database
Track 13 not present in database
Track 14 not present in database
Track 15 not present in database
Track 16 not present in database
Track 17 not present in database
Track 18 not present in database
Track 19 not present in database

None of the tracks are present in the AccurateRip database

End of status report

==== Log checksum E61F9C513466B498C3B5F97494F44E524CA43C5E3A11044AD66B1FD010162571 ====

foobar2000 1.2 / Dynamic Range Meter 1.1.1
log date: 2014-12-23 23:05:11

--------------------------------------------------------------------------------
Analyzed: John Williams / Home Alone 2: Lost In New York (Disc 1)
--------------------------------------------------------------------------------

DR Peak RMS Duration Track
--------------------------------------------------------------------------------
DR11 -0.24 dB -15.48 dB 3:55 01-Somewhere In My Memory
DR9 -0.10 dB -13.71 dB 3:34 02-Star Of Bethlehem
DR13 -4.55 dB -21.86 dB 2:08 03-Home Alone (Main Title)
DR13 -3.76 dB -25.55 dB 1:48 04-This Year's Wish
DR11 -0.10 dB -14.77 dB 3:16 05-We Overslept Again / Holiday Flight
DR14 -0.10 dB -20.33 dB 1:59 06-Separate Vacations
DR11 -0.10 dB -15.64 dB 2:59 07-Arrival In New York
DR13 -0.10 dB -18.03 dB 3:27 08-The Thieves Return
DR12 -3.37 dB -20.71 dB 3:04 09-Plaza Hotel
DR13 -3.30 dB -22.40 dB 1:34 10-Concierge
DR12 -3.37 dB -22.25 dB 2:05 11-Distant Goodnights (Christmas Star)
DR10 -9.02 dB -24.85 dB 1:00 12-A Day In The City
DR12 -0.27 dB -18.41 dB 2:42 13-Duncan's Toy Store
DR12 -2.84 dB -23.24 dB 1:27 14-Turtle Doves
DR9 -0.10 dB -12.78 dB 3:26 15-To The Plaza, Presto
DR11 -0.10 dB -16.57 dB 4:08 16-Race To The Room / Hot Pursuit
DR11 -0.10 dB -15.99 dB 3:02 17-Haunted Brownstone
DR11 -0.10 dB -17.81 dB 3:27 18-Appearance Of The Pigeon Lady
DR13 -0.60 dB -20.16 dB 5:06 19-Christmas At Carnegie Hall (O Come, All Ye Faithful / O Little Town Of Bethle...
--------------------------------------------------------------------------------

Number of tracks: 19
Official DR value: DR12

Samplerate: 44100 Hz
Channels: 2
Bits per sample: 16
Bitrate: 725 kbps
Codec: FLAC
================================================================================


Exact Audio Copy V1.0 beta 3 from 29. August 2011

EAC extraction logfile from 3. April 2013, 22:57

John Williams / Home Alone 2: Lost In New York (Disc 2)

Used drive : TSSTcorpCDDVDW SH-S202H Adapter: 0 ID: 0

Read mode : Secure
Utilize accurate stream : Yes
Defeat audio cache : Yes
Make use of C2 pointers : No

Read offset correction : 6
Overread into Lead-In and Lead-Out : No
Fill up missing offset samples with silence : Yes
Delete leading and trailing silent blocks : No
Null samples used in CRC calculations : Yes
Used interface : Native Win32 interface for Win NT & 2000

Used output format : Internal WAV Routines
Sample format : 44.100 Hz; 16 Bit; Stereo


TOC of the extracted CD

Track | Start | Length | Start sector | End sector
---------------------------------------------------------
1 | 0:00.00 | 4:22.18 | 0 | 19667
2 | 4:22.18 | 2:34.29 | 19668 | 31246
3 | 6:56.47 | 1:15.54 | 31247 | 36925
4 | 8:12.26 | 4:01.04 | 36926 | 55004
5 | 12:13.30 | 7:25.02 | 55005 | 88381
6 | 19:38.32 | 5:07.12 | 88382 | 111418
7 | 24:45.44 | 5:21.73 | 111419 | 135566
8 | 30:07.42 | 1:59.50 | 135567 | 144541
9 | 32:07.17 | 2:51.04 | 144542 | 157370
10 | 34:58.21 | 1:40.30 | 157371 | 164900
11 | 36:38.51 | 2:18.38 | 164901 | 175288
12 | 38:57.14 | 1:43.73 | 175289 | 183086
13 | 40:41.12 | 1:14.59 | 183087 | 188695
14 | 41:55.71 | 1:23.12 | 188696 | 194932
15 | 43:19.08 | 2:38.17 | 194933 | 206799
16 | 45:57.25 | 3:22.55 | 206800 | 222004
17 | 49:20.05 | 2:46.19 | 222005 | 234473
18 | 52:06.24 | 0:41.16 | 234474 | 237564
19 | 52:47.40 | 2:24.71 | 237565 | 248435
20 | 55:12.36 | 1:00.07 | 248436 | 252942
21 | 56:12.43 | 2:22.69 | 252943 | 263661


Range status and errors

Selected range

Filename D:John Williams - Home Alone 2- Lost In New YorkJohn Williams - Home Alone 2- Lost In New York (Disc 2).wav

Peak level 98.8 %
Extraction speed 7.2 X
Range quality 100.0 %
Test CRC 3250C998
Copy CRC 3250C998
Copy OK

No errors occurred


AccurateRip summary

Track 1 not present in database
Track 2 not present in database
Track 3 not present in database
Track 4 not present in database
Track 5 not present in database
Track 6 not present in database
Track 7 not present in database
Track 8 not present in database
Track 9 not present in database
Track 10 not present in database
Track 11 not present in database
Track 12 not present in database
Track 13 not present in database
Track 14 not present in database
Track 15 not present in database
Track 16 not present in database
Track 17 not present in database
Track 18 not present in database
Track 19 not present in database
Track 20 not present in database
Track 21 not present in database

None of the tracks are present in the AccurateRip database

End of status report

==== Log checksum 92B1CC04D336F9F88A8B6F55378993957EDCFB571D9D2DE3D6A48162529EEB35 ====

foobar2000 1.2 / Dynamic Range Meter 1.1.1
log date: 2014-12-23 23:05:28

--------------------------------------------------------------------------------
Analyzed: John Williams / Home Alone 2: Lost In New York (Disc 2)
--------------------------------------------------------------------------------

DR Peak RMS Duration Track
--------------------------------------------------------------------------------
DR12 -0.12 dB -16.96 dB 4:22 01-Christmas Star - Preparing The Trap
DR15 -0.10 dB -22.93 dB 2:34 02-Another Christmas In The Trenches
DR12 -0.10 dB -17.01 dB 1:16 03-Running Through Town
DR16 -2.55 dB -25.26 dB 4:01 04-Luring The Thieves
DR17 -0.10 dB -23.25 dB 7:25 05-Kevin's Booby Traps
DR12 -0.10 dB -17.47 dB 5:07 06-Down The Rope / Into The Park
DR12 -0.49 dB -18.34 dB 5:22 07-Reunion At Rockefeller Center / It's Christmas
DR11 -0.76 dB -18.39 dB 2:00 08-Finale
DR11 -0.10 dB -13.54 dB 2:51 09-We Wish You A Merry Christmas / Merry Christmas, Merry Christmas
DR10 -0.45 dB -15.43 dB 1:40 10-End Titles ('Somewhere In My Memory')
DR16 -5.26 dB -24.09 dB 2:19 11-God Rest You Merry, Gentlemen / Good King Wenceslas
DR13 -2.00 dB -18.31 dB 1:44 12-The Christmas Song
DR13 -2.00 dB -17.91 dB 1:15 13-Let It Snow! Let It Snow! Let It Snow!
DR13 -3.46 dB -20.26 dB 1:23 14-Winter Wonderland
DR10 -0.39 dB -16.28 dB 3:23 16-Christmas Star
DR11 -0.10 dB -13.79 dB 2:46 17-Merry Christmas, Merry Christmas (Alternate)
DR10 -2.05 dB -15.92 dB 0:41 18-Celebrity Ding-Dang-Dong
DR13 -0.32 dB -18.60 dB 2:25 19-Holiday Flight (Alternate)
DR11 -0.10 dB -14.91 dB 1:00 20-Suite From 'Angels With Filthy Souls II'
DR9 -0.10 dB -11.61 dB 2:23 21-Merry Christmas, Merry Christmas (Orchestra)
--------------------------------------------------------------------------------

Number of tracks: 20
Official DR value: DR12

Samplerate: 44100 Hz
Channels: 2
Bits per sample: 16
Bitrate: 728 kbps
Codec: FLAC
================================================================================

foobar2000 1.2 / Dynamic Range Meter 1.1.1
log date: 2014-12-23 23:05:12

--------------------------------------------------------------------------------
Statistics for: 15-My Christmas Tree
Number of samples: 6977796
Duration: 2:38
--------------------------------------------------------------------------------

Left Right

Peak Value: -4.52 dB --- -4.50 dB
Avg RMS: -16.98 dB --- -17.07 dB
DR channel: 9.59 dB --- 9.52 dB
--------------------------------------------------------------------------------

Official DR Value: DR10

Samplerate: 44100 Hz
Channels: 2
Bits per sample: 16
Bitrate: 728 kbps
Codec: FLAC
================================================================================


All thanks to original releaser - Composer's fan





Password: designol