Se7en - June 02, 2018 | Isle of Dogs CAM | Gravitation

Вход в свой аккаунт

Или войдите через соц. сети

John Williams - Home Alone: Original Motion Picture Soundtrack (1990) Limited Edition 2010


John Williams - Home Alone: Original Motion Picture Soundtrack (1990) Limited Edition 2010
EAC | FLAC | Image (Cue&Log) ~ 425 Mb (incl 5%) | Mp3 (CBR320) ~ 211 Mb (incl 5%) | Scans included
Genre: Soundtrack, Score | Label: La-La-Land Records | # LLLCD 1158 | Time: 01:18:48

“ Remastered and expanded release of renowned composer John Williams’ (JAWS, STAR WARS, RAIDERS OF THE LOST ARK, 1941) orchestral score to the 1990 holiday classic 20th Century Fox feature film HOME ALONE, starring Macaulay Culkin, Joe Pesci, Daniel Stern and Catherine O’Hara, written and produced by John Hughes and directed by Chris Columbus. Produced by Nick Redman, Mike Matessino and Didier C. Deutsch, through arrangement with Sony Music and 20th Century Fox, and remastered by Mark G. Wilder and Maria Triana at Battery Studios, this expanded release arrives just in time for the film’s 20th Anniversary and features more than 20 minutes of previously unreleased music, including bonus tracks. Exclusive, in-depth liner notes by Mike Matessino take you behind-the-scenes of one of filmdom’s most indelible holiday scores. This release is limited to 3500 Units. Art direction is by Jim Titus (UNSTOPPABLE, HUMAN TARGET). A note to completists: The recordings of "Have Yourself a Merry Little Christmas," "Please Come Home For Christmas" and "White Christmas" which are included on the 1990 soundtrack album for HOME ALONE were not available for license. ”









Tracklist:

01. Somewhere In My Memory (03:23)
02. Star Of Bethlehem (Orchestral Version) (02:53)
03. Home Alone (Main Theme) (01:26)
04. Go Pack Your Suitcase / Introducing Marley / In Good Hands (01:50)
05. Banished To The Attick (01:06)
06. We Slept In / Hard Count (01:19)
07. Making The Plane (00:54)
08. The Basement (02:18)
09. Target Practice / Sledding On The Stairs (01:31)
10. Lights On / Guess Who's Home / Paris Arrival (03:17)
11. The Man Of The House / Police Check (01:22)
12. The Bookshelf (01:10)
13. Phone Machine / Drug Store / Escape Across The Ice (03:06)
14. Follow That Kid! (02:12)
15. Listening To Carson (00:43)
16. Cleaning Clothes / Kitchen (01:39)
17. Scammed By A Kindergartner (02:09)
18. Walking Home (Somewhere In My Memory) (01:06)
19. O Holy Night (02:50)
20. Star Of Bethlehem (02:59)
21. Carol Of The Bells (01:26)
22. Setting The Trap (02:30)
23. The Attack Begins (01:29)
24. Marv Enters The Basement / A Hot Hand / Sore Head (02:50)
25. Paint Cans (02:05)
26. Clothesline Trapeze / Marley To The Rescue (04:12)
27. The Next Morning / Mom Returns / Finale (04:25)
28. We Wish You A Merry Christmas / End Title (Somewhere In My Memory) (04:18)

Additional Music:

29. Walking Home (Without Chorus) (01:05)
30. Clothesline Trapeze (Film Version Insert) (00:23)
31. Jingle Bells (01:01)
32. Christmas Carol Medley (07:43)
33. Finale (Alternate - O Holy Night) (01:33)
34. We Wish You A Merry Christmas / End Title (Somewhere In My Memory) [Original Soundtrack Version] (04:15)


Exact Audio Copy V1.0 beta 3 from 29. August 2011

EAC extraction logfile from 24. March 2013, 16:45

John Williams / Home Alone

Used drive : TSSTcorpCDDVDW SH-S202H Adapter: 0 ID: 0

Read mode : Secure
Utilize accurate stream : Yes
Defeat audio cache : Yes
Make use of C2 pointers : No

Read offset correction : 6
Overread into Lead-In and Lead-Out : No
Fill up missing offset samples with silence : Yes
Delete leading and trailing silent blocks : No
Null samples used in CRC calculations : Yes
Used interface : Native Win32 interface for Win NT & 2000

Used output format : Internal WAV Routines
Sample format : 44.100 Hz; 16 Bit; Stereo


TOC of the extracted CD

Track | Start | Length | Start sector | End sector
---------------------------------------------------------
1 | 0:00.00 | 3:23.60 | 0 | 15284
2 | 3:23.60 | 2:53.47 | 15285 | 28306
3 | 6:17.32 | 1:26.67 | 28307 | 34823
4 | 7:44.24 | 1:50.65 | 34824 | 43138
5 | 9:35.14 | 1:06.57 | 43139 | 48145
6 | 10:41.71 | 1:19.48 | 48146 | 54118
7 | 12:01.44 | 0:54.02 | 54119 | 58170
8 | 12:55.46 | 2:18.01 | 58171 | 68521
9 | 15:13.47 | 1:31.35 | 68522 | 75381
10 | 16:45.07 | 3:17.39 | 75382 | 90195
11 | 20:02.46 | 1:22.28 | 90196 | 96373
12 | 21:24.74 | 1:10.31 | 96374 | 101654
13 | 22:35.30 | 3:06.23 | 101655 | 115627
14 | 25:41.53 | 2:12.14 | 115628 | 125541
15 | 27:53.67 | 0:43.51 | 125542 | 128817
16 | 28:37.43 | 1:39.21 | 128818 | 136263
17 | 30:16.64 | 2:09.52 | 136264 | 145990
18 | 32:26.41 | 1:06.28 | 145991 | 150968
19 | 33:32.69 | 2:50.41 | 150969 | 163759
20 | 36:23.35 | 2:59.70 | 163760 | 177254
21 | 39:23.30 | 1:26.57 | 177255 | 183761
22 | 40:50.12 | 2:30.57 | 183762 | 195068
23 | 43:20.69 | 1:29.59 | 195069 | 201802
24 | 44:50.53 | 2:50.36 | 201803 | 214588
25 | 47:41.14 | 2:05.50 | 214589 | 224013
26 | 49:46.64 | 4:12.60 | 224014 | 242973
27 | 53:59.49 | 4:25.67 | 242974 | 262915
28 | 58:25.41 | 4:18.72 | 262916 | 282337
29 | 62:44.38 | 1:05.31 | 282338 | 287243
30 | 63:49.69 | 0:23.23 | 287244 | 288991
31 | 64:13.17 | 1:01.66 | 288992 | 293632
32 | 65:15.08 | 7:43.34 | 293633 | 328391
33 | 72:58.42 | 1:33.73 | 328392 | 335439
34 | 74:32.40 | 4:15.30 | 335440 | 354594


Range status and errors

Selected range

Filename D:John Williams - Home AloneJohn Williams - Home Alone.wav

Peak level 99.6 %
Extraction speed 8.6 X
Range quality 100.0 %
Test CRC 46CA70FB
Copy CRC 46CA70FB
Copy OK

No errors occurred


AccurateRip summary

Track 1 accurately ripped (confidence 7) [A66665E2] (AR v2)
Track 2 accurately ripped (confidence 7) [79AD8172] (AR v2)
Track 3 accurately ripped (confidence 7) [F4AC885A] (AR v2)
Track 4 accurately ripped (confidence 7) [B28FD4C3] (AR v2)
Track 5 accurately ripped (confidence 7) [3637CCAA] (AR v2)
Track 6 accurately ripped (confidence 7) [F84F00D9] (AR v2)
Track 7 accurately ripped (confidence 7) [8F4998D8] (AR v2)
Track 8 accurately ripped (confidence 7) [991641A7] (AR v2)
Track 9 accurately ripped (confidence 7) [CAF2C25D] (AR v2)
Track 10 accurately ripped (confidence 7) [01627394] (AR v2)
Track 11 accurately ripped (confidence 7) [5478AD0E] (AR v2)
Track 12 accurately ripped (confidence 7) [D08B975D] (AR v2)
Track 13 accurately ripped (confidence 7) [A172503D] (AR v2)
Track 14 accurately ripped (confidence 7) [E9C8B458] (AR v2)
Track 15 accurately ripped (confidence 7) [D8956697] (AR v2)
Track 16 accurately ripped (confidence 7) [63D38974] (AR v2)
Track 17 accurately ripped (confidence 7) [BBCBCF7D] (AR v2)
Track 18 accurately ripped (confidence 7) [72C0D8B1] (AR v2)
Track 19 accurately ripped (confidence 7) [3FF0E3E2] (AR v2)
Track 20 accurately ripped (confidence 7) [17C7C113] (AR v2)
Track 21 accurately ripped (confidence 7) [D374091B] (AR v2)
Track 22 accurately ripped (confidence 7) [06B56CC7] (AR v2)
Track 23 accurately ripped (confidence 7) [AEF28EB1] (AR v2)
Track 24 accurately ripped (confidence 7) [7D9DF666] (AR v2)
Track 25 accurately ripped (confidence 7) [37BECA67] (AR v2)
Track 26 accurately ripped (confidence 7) [C246DB3C] (AR v2)
Track 27 accurately ripped (confidence 7) [699E4C7C] (AR v2)
Track 28 accurately ripped (confidence 7) [BD5375ED] (AR v2)
Track 29 accurately ripped (confidence 7) [C63F3CF9] (AR v2)
Track 30 accurately ripped (confidence 7) [61AB4025] (AR v2)
Track 31 accurately ripped (confidence 7) [AF895067] (AR v2)
Track 32 accurately ripped (confidence 7) [39F322D4] (AR v2)
Track 33 accurately ripped (confidence 7) [C5A0B2FB] (AR v2)
Track 34 accurately ripped (confidence 7) [51BB0CCF] (AR v2)

All tracks accurately ripped

End of status report

==== Log checksum 352EF788A725C9AC1AF036802FB03AE2BF618B8A095EE3059D91C11D4FFE9A0F ====

foobar2000 1.2 / Dynamic Range Meter 1.1.1
log date: 2014-12-21 23:38:17

--------------------------------------------------------------------------------
Analyzed: John Williams / Home Alone
--------------------------------------------------------------------------------

DR Peak RMS Duration Track
--------------------------------------------------------------------------------
DR12 -1.47 dB -18.08 dB 3:24 01-Somewhere In My Memory
DR11 -1.50 dB -18.04 dB 2:54 02-Star Of Bethlehem (Orchestral Version)
DR14 -3.11 dB -22.77 dB 1:27 03-Home Alone (Main Theme)
DR15 -1.97 dB -24.19 dB 1:51 04-Go Pack Your Suitcase / Introducing Marley / In Good Hands
DR14 -3.90 dB -23.79 dB 1:07 05-Banished To The Attick
DR14 -1.01 dB -22.17 dB 1:20 06-We Slept In / Hard Count
DR14 -0.03 dB -18.39 dB 0:54 07-Making The Plane
DR15 -1.42 dB -23.20 dB 2:18 08-The Basement
DR13 -1.15 dB -21.32 dB 1:31 09-Target Practice / Sledding On The Stairs
DR16 -0.95 dB -22.68 dB 3:18 10-Lights On / Guess Who's Home / Paris Arrival
DR11 -3.00 dB -22.53 dB 1:22 11-The Man Of The House / Police Check
DR9 -5.97 dB -22.99 dB 1:10 12-The Bookshelf
DR13 -0.97 dB -19.22 dB 3:06 13-Phone Machine / Drug Store / Escape Across The Ice
DR12 -0.80 dB -19.44 dB 2:12 14-Follow That Kid!
DR10 -5.56 dB -22.23 dB 0:44 15-Listening To Carson
DR13 -0.03 dB -20.94 dB 1:39 16-Cleaning Clothes / Kitchen
DR12 -8.93 dB -25.99 dB 2:10 17-Scammed By A Kindergartner
DR10 -6.26 dB -21.82 dB 1:06 18-Walking Home (Somewhere In My Memory)
DR10 -1.19 dB -14.70 dB 2:51 19-O Holy Night
DR14 -1.44 dB -19.77 dB 3:00 20-Star Of Bethlehem
DR13 -2.82 dB -21.18 dB 1:27 21-Carol Of The Bells
DR12 -0.83 dB -16.01 dB 2:31 22-Setting The Trap
DR15 -1.02 dB -25.01 dB 1:30 23-The Attack Begins
DR15 -0.94 dB -21.80 dB 2:50 24-Marv Enters The Basement / A Hot Hand / Sore Head
DR14 -0.03 dB -18.69 dB 2:06 25-Paint Cans
DR13 -0.87 dB -19.55 dB 4:13 26-Clothesline Trapeze / Marley To The Rescue
DR12 -0.88 dB -18.31 dB 4:26 27-The Next Morning / Mom Returns / Finale
DR12 -1.00 dB -17.64 dB 4:19 28-We Wish You A Merry Christmas / End Title (Somewhere In My Memory)
DR9 -5.99 dB -20.46 dB 1:05 29-Walking Home (Without Chorus)
DR10 -0.03 dB -15.58 dB 0:23 30-Clothesline Trapeze (Film Version Insert)
DR10 -3.58 dB -16.57 dB 1:02 31-Jingle Bells
DR11 -0.97 dB -16.79 dB 7:43 32-Christmas Carol Medley
DR9 -1.07 dB -15.68 dB 1:34 33-Finale (Alternate - O Holy Night)
DR13 -1.43 dB -17.89 dB 4:15 34-We Wish You A Merry Christmas / End Title (Somewhere In My Memory) (Original ...
--------------------------------------------------------------------------------

Number of tracks: 34
Official DR value: DR12

Samplerate: 44100 Hz
Channels: 2
Bits per sample: 16
Bitrate: 682 kbps
Codec: FLAC
================================================================================



All thanks to original releaser - Composer's fan



Password: designol